<?xml version="1.0" standalone="no"?>
<!DOCTYPE svg PUBLIC "-//W3C//DTD SVG 1.1//EN" "http://www.w3.org/Graphics/SVG/1.1/DTD/svg11.dtd" >
<!--
2013-9-30: Created.
-->
<svg>
<metadata>
Created by iconfont
</metadata>
<defs>

<font id="iconfont" horiz-adv-x="1024" >
  <font-face
    font-family="iconfont"
    font-weight="500"
    font-stretch="normal"
    units-per-em="1024"
    ascent="896"
    descent="-128"
  />
    <missing-glyph />
    
    <glyph glyph-name="shop" unicode="&#59054;" d="M986.609375 700.40625L174.5 700.40625l-84.375-228.51562473c0-66.79687527 56.25000027-123.04687473 123.04687473-123.04687473 66.79687527 0 123.04687473 56.25000027 123.04687473 123.04687473 0-66.79687527 56.25000027-123.04687473 123.04687472-123.04687473 66.79687527 0 123.04687473 56.25000027 123.04687472 123.04687473 0-66.79687527 56.25000027-123.04687473 123.04687473-123.04687473 66.79687527 0 123.04687473 56.25000027 123.04687473 123.04687473 0-66.79687527 56.25000027-123.04687473 123.04687472-123.04687473 66.79687527 0 123.04687473 56.25000027 123.04687473 123.04687473L986.609375 700.40625zM933.875 313.68750027l0-281.24999973-667.96875027 0 0 281.24999973-70.31249973 0 0-281.24999973c0-42.1875 28.12499973-70.31249973 70.31249973-70.31249971l667.96875027 0c38.67187473 0 70.31249973 31.640625 70.31249973 70.31249971l0 281.24999973L933.875 313.68750027zM195.59375 735.56250027l773.43750027 0 0 70.31249973-773.43750027 0L195.59375 735.56250027z"  horiz-adv-x="1195" />

    
    <glyph glyph-name="right-1" unicode="&#58897;" d="M511.945-62.713c-247.066 0-448.054 200.988-448.054 448.060 0 247.066 200.988 448.054 448.054 448.054 247.073 0 448.060-200.988 448.060-448.054 0-247.072-200.989-448.060-448.060-448.060v0zM511.945 769.107c-211.608 0-383.758-172.151-383.758-383.758 0-211.581 172.151-383.765 383.758-383.765 211.581 0 383.765 172.185 383.765 383.765-0.001 211.608-172.186 383.758-383.765 383.758v0zM726.948 504.175c-12.545 12.448-32.837 12.322-45.249-0.254l-233.311-235.869-103.28 106.122c-12.35 12.707-32.612 12.932-45.249 0.64-12.678-12.322-12.965-32.612-0.64-45.251l126.032-129.522c0.064-0.093 0.19-0.093 0.254-0.19 0.064-0.064 0.097-0.191 0.161-0.254 2.017-1.988 4.512-3.204 6.881-4.547 1.25-0.674 2.241-1.793 3.52-2.305 3.873-1.601 8-2.398 12.096-2.398 4.063 0 8.131 0.796 11.969 2.334 1.25 0.513 2.208 1.539 3.394 2.178 2.398 1.344 4.898 2.525 6.945 4.542 0.063 0.064 0.098 0.196 0.19 0.259 0.064 0.094 0.161 0.128 0.259 0.191l256.254 259.042c12.452 12.608 12.32 32.865-0.226 45.282v0zM726.948 504.175z"  horiz-adv-x="1025" />

    
    <glyph glyph-name="shancgheng" unicode="&#58907;" d="M160 752l704 0c26.512 0 48 21.488 48 48s-21.488 48-48 48L160 848C133.488 848 112 826.512 112 800S133.488 752 160 752zM934 704L90 704 0 464c0-70.688 57.312-128 128-128s128 57.312 128 128c0-70.688 57.312-128 128-128s128 57.312 128 128c0-70.688 57.312-128 128-128s128 57.312 128 128c0-70.688 57.312-128 128-128s128 57.312 128 128L934 704zM880 288.76800000000003L880 288.79999999999995c-4.592 0.416-9.12 1.104-13.6 1.872-0.976 0.16-1.968 0.24-2.928 0.416-2.08 0.368-4.096 0.976-6.144 1.44C848.672 294.51199999999994 840.16 296.976 832 300.15999999999997L832 64 192 64 192 300.17600000000004c-8.16-3.2-16.672-5.664-25.376-7.648-2.048-0.464-4.048-1.04-6.112-1.44-0.96-0.192-1.952-0.272-2.928-0.432C153.104 289.91999999999996 148.592 289.216 144 288.79999999999995l0-0.032C138.736 288.288 133.408 288 128 288c-10.944 0-21.616 1.12-32 3.024L96-32c0-26.512 21.488-48 48-48l736 0c26.512 0 48 21.488 48 48L928 291.024C917.632 289.12 906.944 288 896 288 890.608 288 885.264 288.288 880 288.76800000000003z"  horiz-adv-x="1024" />

    
    <glyph glyph-name="pintuan" unicode="&#58951;" d="M820.291458 576.376449 703.183274 576.376449 703.183274 693.484633c0 16.161075-13.115716 29.27679-29.27679 29.27679s-29.27679-13.115716-29.27679-29.27679l0-117.108185L234.749512 576.376449c-16.161075 0-29.27679-13.115716-29.27679-29.27679s13.115716-29.27679 29.27679-29.27679l368.481306 0L249.387907 164.00861c-11.447726-11.476379-11.447726-29.950126 0-41.397852 11.447726-11.476379 29.950126-11.476379 41.397852 0L644.62867 476.423993l0-368.45163c0-16.189727 13.115716-29.27679 29.27679-29.27679s29.27679 13.087063 29.27679 29.27679L703.18225 517.821845l117.108185 0c16.161075 0 29.27679 13.115716 29.27679 29.27679C849.568249 563.25971 836.45151 576.376449 820.291458 576.376449M849.568249 839.869608 205.472721 839.869608c-64.672952 0-117.108185-52.435233-117.108185-117.108185L88.364537 78.695572c0-64.702628 52.435233-117.137861 117.108185-117.137861l644.095527 0c64.672952 0 117.108185 52.435233 117.108185 117.137861L966.676433 722.761424C966.676433 787.434375 914.2412 839.869608 849.568249 839.869608M908.121829 78.695572c0-32.350802-26.202779-58.583257-58.554604-58.583257L205.472721 20.112316c-32.350802 0-58.554604 26.232454-58.554604 58.583257L146.918118 722.762447c0 32.350802 26.202779 58.554604 58.554604 58.554604l644.095527 0c32.350802 0 58.554604-26.202779 58.554604-58.554604L908.121829 78.695572 908.121829 78.695572z"  horiz-adv-x="1024" />

    
    <glyph glyph-name="weibiaoti2zhuanhuan" unicode="&#58910;" d="M784.704 100.448C774.912 105.888 768 124.992 768 136.992c0 17.664 14.336 33.024 32 33.024l0 0.384c92.288 27.68 160 112.288 160 213.6s-67.68 185.92-160 213.6l0.992 0.416C783.328 597.984 768 611.328 768 628.992c0 12.032 6.912 33.12 16.704 38.592C920.512 644.384 1024 526.432 1024 384S920.512 123.616 784.704 100.448zM608-128c-8.32 0-15.776 3.36-21.472 8.608-0.032 0-0.096 0-0.128 0.032L214.784 128 64 128c-35.328 0-64 28.672-64 64L0 576c0 35.36 28.672 64 64 64l160 0c0.288 0 0.544-0.064 0.8-0.064L581.12 891.712c7.008 4.032 14.848 4.8 22.176 3.328C604.896 895.328 606.336 896 608 896c17.664 0 32-14.336 32-32l0-960C640-113.664 625.664-128 608-128zM224 512c0 35.36-28.672 64-64 64L128 576c-35.328 0-64-28.64-64-64l0-256c0-35.328 28.672-64 64-64l32 0c35.36 0 64 28.672 64 64L224 512zM279.552 160.768 576-36.576 576 810.048 282.144 602.4C285.824 594.336 288 585.44 288 576l0-384C288 180.608 284.768 170.048 279.552 160.768z"  horiz-adv-x="1024" />

    
    <glyph glyph-name="kefu" unicode="&#58968;" d="M516.01681749 90.19014371000003c4.9680475 0 10.02690901 0.3038811 15.1148783 0.91047823 48.79909888 5.85640391 90.23752419 39.96442738 105.53403164 86.96934741 1.151488 3.51966435-0.51461803 7.28266525-3.87710293 8.83001344-3.33221205 1.54734819-7.36067357 0.21190201-9.2386816-2.94333781-0.18163029-0.3038811-19.56830663-31.61992533-95.05304804-41.81565668-11.29831879-1.51707648-22.29392157-2.30646898-32.71436288-2.30646897-52.88810269 0.03027171-76.45459911 19.96649586-76.66650112 20.14929009-2.6650715 2.36701241-6.72496867 2.4275547-9.45058247 0.12108687-2.75588665-2.30646898-3.39275549-6.31164359-1.51474745-9.37723222C431.17230877 113.40385848999995 472.48848327 90.19014371000003 516.01681749 90.19014371000003zM921.88774514 557.9910883499999c-0.66714055 0-1.27257486-0.12108686-1.90827975-0.12108686C875.75371776 749.34763747 706.75978354 892.18219008 504.14333725 892.18219008c-208.18992697 0-381.06096299-150.72498005-419.38024221-350.12215125-37.25744128-6.70633984-65.61035491-39.44864541-65.61035491-79.0498122l0-158.49315669c0-44.42484167 35.62277091-80.44463787 79.60518086-80.44463787 24.80879843 0 46.70918883 11.71280782 61.27917739 29.7081526 35.19663901-93.09586773 106.86249301-168.16728405 197.54943488-207.76961592 0.21772288 0.47270343 1.93505849 3.80957355 3.99818866 6.46882304 1.43091826 1.84424334 3.02716701 3.35899079 4.40103481 3.35899079 1.4239323 0 2.72677888-0.51578311 3.84683122-1.30517447-20.99224007 15.62833237-96.80996921 95.95188338-113.22769408 208.04671829-7.20931499 49.34165959 29.74541027 97.77167701 72.78939818 105.78319133 69.09392555 12.86662485 137.82459165 27.52277049 206.9185172 40.14605766 43.92186653 8.01151431 73.94088619 32.10543559 92.29716138 72.22122155 4.30090581 9.37723221 10.51125533 28.3424347 13.35912107 55.6835749 0.75679175 4.06571805 4.08900381 7.1918501 8.36080299 7.1918501 2.84786574 0 5.27076352-1.45653305 6.87632611-3.54993607l1.90827975 1.18292366c27.23169735-39.53945941 81.24101632-127.08513337 88.99522105-219.39510272 8.90569273-105.5410176 3.93764637-177.82278371-76.84813027-251.7741477-0.09081515-0.09081515-0.21190201-0.21190201-0.33298888-0.3038811-1.12121629-1.21319538-1.78719289-2.79197923-1.78719288-4.52095772 0-2.27619726 1.21203143-4.21824057 2.9689526-5.40116424 0.66597661-0.27360939 1.33311829-0.63686883 1.9990949-0.91047822 0.54488974-0.12108686 1.05950891-0.3038811 1.60556259-0.3038811 0.54605483 0 1.03040114 0.18163029 1.51474745 0.3038811 1.151488 0.60659826 2.24126749 1.30517447 3.36248377 1.91177273 81.69509091 45.00233216 144.36676494 120.16689266 173.32511175 210.56508928 11.72212281-17.41785429 30.07839801-29.95032633 51.40362695-34.31992547-34.19883861-155.54981888-172.93157945-252.89652793-344.80365113-267.67492552-10.29935445 25.55045547-35.65304263 43.69715769-65.42872462 43.69715769-38.89327673 0-70.42704384-30.80026112-70.42704384-68.76210176s31.53260317-68.73183005 70.42704384-68.73183004c31.35097287 0 57.61397646 20.1492901 66.7315712 47.82341916 198.95124537 16.1743872 358.43405369 134.42950713 391.72474198 318.16923705 29.41242141 12.29029831 50.07050866 41.14851613 50.07050865 74.83157163L1003.61543566 476.81760142C1003.61310777 521.63713934 967.02047801 557.9910883499999 921.88774514 557.9910883499999zM848.49174869 511.92691939C796.60377543 652.48527474 662.14166869 752.8975735500001 503.96170695 752.8975735500001c-157.51398514 0-291.49058048-99.56236288-343.86406514-239.21024-2.60452807 3.18667549-5.66429582 5.91694734-8.663519 8.67865486C181.08871794 692.54168121 327.54655687 821.9332835499999 504.14333725 821.9332835499999c175.74917347 0 321.75177387-128.11669845 352.3762267-297.10946872C853.49006791 520.75693283 850.7027456 516.50841941 848.49174869 511.92691939zM357.59468317 46.00747463000005c-0.00349298 0.00116395-0.00582201 0.00232903-0.00931386 0.00349298C357.55276857 45.93761734999998 357.55160462 45.92830236999998 357.59468317 46.00747463000005z"  horiz-adv-x="1024" />

    
    <glyph glyph-name="laba-copy" unicode="&#58912;" d="M849.599 523.624c-74.074 172.537-193.226 303.788-253.506 279.307-102.366-41.706 60.981-241.719-441.776-446.226-43.444-17.739-54.432-88.375-36.242-130.69 18.144-42.221 77.534-84.303 120.978-66.655 7.529 3.089 35.12 11.983 35.12 11.983 31.004-41.707 63.458-16.991 75.008-43.438 13.842-31.83 43.911-101.013 54.152-124.511 10.241-23.498 33.436-45.264 50.271-38.851 16.789 6.413 73.98 28.179 95.865 36.464 21.886 8.332 27.076 27.898 20.389 43.251-7.202 16.617-36.756 21.485-45.22 40.864-8.418 19.285-35.962 81.353-43.865 100.92-10.755 26.587 12.112 48.259 45.36 51.676 228.861 23.966 271.65-117.583 349.558-85.846 60.185 24.575 47.933 199.357-26.094 371.753v0 0zM823.832 243.896c-13.421-5.383-103.488 65.625-161.007 199.733-57.566 134.013-50.317 256.51-36.943 261.988 13.375 5.383 101.243-80.371 158.763-214.384 57.566-134.013 52.562-241.86 39.188-247.337v0 0z"  horiz-adv-x="1024" />

    
    <glyph glyph-name="group" unicode="&#58959;" d="M882.355249 196.347662 911.132366 167.701862C924.922821 153.997304 924.922821 131.80116 913.175821 119.95033L807.490202 30.059665C793.775719 16.31541 771.418703 16.346135 757.626955 30.059665L483.523955 302.896321C442.268476 343.88327 375.15879 343.988246 333.938076 302.998737L323.321615 292.447312 255.651813 359.695045C241.860069 373.400888 219.541679 373.363762 205.788565 359.695045L184.45392 338.515383C184.419154 338.483377 31.127492 186.24943 31.127492 186.24943-10.095797 145.267607-10.133138 78.543472 31.095302 37.488672L122.693025-55.021287C143.284711-75.494279 170.403365-85.771737 197.485964-85.771737 224.567276-85.771737 251.648589-75.531404 272.312382-55.058412L421.366472 103.99261C421.403813 104.024615 442.771937 125.273407 442.771937 125.273407 449.400626 131.86517 453.107696 140.734409 453.107696 150.059401 453.107696 159.351108 449.399339 168.290756 442.809278 174.844114L373.226066 242.733226 383.803899 253.250087C397.5583 266.994335 419.914032 266.957209 433.663283 253.214242L437.192661 249.747451 707.803624-19.658262C728.682451-40.383457 756.150053-50.61867 783.339527-50.61867 809.824667-50.61867 836.023955-40.86865 855.384673-21.520962L961.069006 68.378669C1002.329635 109.364339 1002.36054 176.117913 961.106348 217.172713L932.329237 245.782668 882.355249 196.347662ZM212.335131 266.076685C224.619705 278.416015 244.649512 278.340243 257.077856 265.902537L352.116839 170.791974C364.54299 158.356467 364.908068 137.822178 352.903964 124.896889L246.441366 10.264454C222.549312-15.461059 182.323763-16.498034 156.541483 7.999227L99.817912 61.895626C74.059632 86.370084 73.284476 126.406232 98.018855 151.25086L212.335131 266.076685ZM838.91675 337.151434C829.74758 337.151434 820.6106 340.660468 813.733395 347.668294L473.893563 683.731313C460.279512 697.583099 460.490682 719.735715 474.421489 733.309697 488.314954 746.838873 510.671973 746.666045 524.284736 732.778414L864.091094 396.75252C877.706432 382.908415 877.52745 360.749398 863.597934 347.181817 856.720728 340.518365 847.836124 337.151434 838.91675 337.151434ZM534.371207 820.776351C530.2125 824.914949 524.794176 828.075923 518.429646 829.985866 502.645447 834.722573 485.104103 830.788156 475.251242 820.992326L332.248046 677.551552C316.1708 661.564483 316.157578 635.537699 332.20417 619.556671L745.04026 208.571561C753.034412 200.622975 763.362921 196.371169 774.784159 196.371169 786.13205 196.371169 796.455977 200.622322 803.496006 207.605892L836.575053 241.845603 886.460436 291.192789 947.135503 351.447139C955.15073 359.473338 959.38543 369.642841 959.38543 380.695479 959.38543 391.740119 955.17453 401.861889 947.294115 409.710044L534.371207 820.776351ZM992.454454 455.056015C1012.379152 435.212883 1023.38319 408.779272 1023.38319 380.695479 1023.38319 352.577122 1012.34181 326.174234 992.419691 306.224846L931.556266 245.782668 881.582284 196.347662 849.538471 163.155864C829.582869 143.307611 803.028195 132.373409 774.784159 132.373409 746.465439 132.373409 719.910765 143.308898 699.916533 163.189149L287.052711 574.201859C245.861612 615.224653 245.901529 681.942382 287.122243 722.931892L429.92878 866.176258C457.815651 893.90417 500.188106 902.277311 536.824426 891.283055 552.673803 886.526787 567.449636 878.145821 579.514659 866.139133L992.454454 455.056015Z"  horiz-adv-x="1025" />

    
    <glyph glyph-name="arrowleft" unicode="&#58896;" d="M631.83336387 117.51876775000005c-9.12169257 0-17.61643187 3.50839226-23.96870958 9.88422049l-232.53919208 232.95291758c-0.85100153 0.83127001-1.51487184 1.53842237-2.0584435 2.29585829l-1.37484166 1.73319159c-6.78064272 6.81246776-10.11272426 14.82792199-10.11272427 23.31311378 0 8.63795199 3.40591563 16.71451027 9.58124613 22.7421726l234.13871851 231.6563655c6.33381918 6.24598207 14.79100494 9.68881477 23.80576537 9.68881475 8.8142627 0 17.14160229-3.34162905 23.44359644-9.4004799 6.2638041-6.07794587 9.87021748-14.55486316 9.86958098-23.24373519 0-8.58257641-3.41482664-16.71387378-9.6328027-22.89429628l-211.22023521-208.95238297 213.91581599-214.47784616c6.11486291-6.15241646 9.49340903-14.19142121 9.49340901-22.67152099 0-8.88427778-3.61086888-17.22052838-10.1439128-23.47160248-6.21733954-5.90099865-14.47020855-9.1535176-23.19663413-9.1535176z"  horiz-adv-x="1024" />

    
    <glyph glyph-name="arrowup" unicode="&#58898;" d="M245.51876775 264.16663613000003c0 9.12169257 3.50839226 17.61643187 9.88422049 23.96870958l232.95291758 232.53919208c0.83127001 0.85100153 1.53842237 1.51487184 2.29585829 2.0584435l1.73319159 1.37484166c6.81246776 6.78064272 14.82792199 10.11272426 23.31311378 10.11272427 8.63795199 0 16.71451027-3.40591563 22.7421726-9.58124613l231.6563655-234.13871851c6.24598207-6.33381918 9.68881477-14.79100494 9.68881475-23.80576537 0-8.8142627-3.34162905-17.14160229-9.4004799-23.44359644-6.07794587-6.2638041-14.55486316-9.87021748-23.24373519-9.86958098-8.58257641 0-16.71387378 3.41482664-22.89429628 9.6328027l-208.95238297 211.22023521-214.47784616-213.91581599c-6.15241646-6.11486291-14.19142121-9.49340903-22.67152099-9.49340901-8.88427778 0-17.22052838 3.61086888-23.47160248 10.1439128-5.90099865 6.21733954-9.1535176 14.47020855-9.1535176 23.19663413z"  horiz-adv-x="1024" />

    
    <glyph glyph-name="arrowright" unicode="&#58884;" d="M392.16663613 650.48123225c9.12169257 0 17.61643187-3.50839226 23.96870958-9.88422049l232.53919208-232.95291758c0.85100153-0.83127001 1.51487184-1.53842237 2.0584435-2.29585829l1.37484166-1.73319159c6.78064272-6.81246776 10.11272426-14.82792199 10.11272427-23.31311378 0-8.63795199-3.40591563-16.71451027-9.58124613-22.7421726l-234.13871851-231.6563655c-6.33381918-6.24598207-14.79100494-9.68881477-23.80576537-9.68881475-8.8142627 0-17.14160229 3.34162905-23.44359644 9.4004799-6.2638041 6.07794587-9.87021748 14.55486316-9.86958098 23.24373519 0 8.58257641 3.41482664 16.71387378 9.6328027 22.89429628l211.22023521 208.95238297-213.91581599 214.47784616c-6.11486291 6.15241646-9.49340903 14.19142121-9.49340901 22.67152099 0 8.88427778 3.61086888 17.22052838 10.1439128 23.47160248 6.21733954 5.90099865 14.47020855 9.1535176 23.19663413 9.1535176z"  horiz-adv-x="1024" />

    
    <glyph glyph-name="fenxiao2" unicode="&#58952;" d="M846.904 196.348c-46.727 132.674-169.742 226.079-309.92 235.866v56.83c76.755 11.781 135.728 78.266 135.728 158.265 0 88.29-71.83 160.12-160.12 160.12s-160.12-71.83-160.12-160.12c0-79.999 58.973-146.483 135.728-158.265v-56.83c-140.179-9.786-263.197-103.189-309.923-235.858-62.947-2.221-113.47-54.11-113.47-117.589 0-64.886 52.786-117.672 117.672-117.672s117.672 52.786 117.672 117.672c0 49.121-30.255 91.299-73.106 108.899 41.8 109.37 144.309 186.173 261.155 195.639V193.91c-53.267-11.226-93.375-58.585-93.375-115.144 0-64.886 52.786-117.672 117.672-117.672s117.672 52.786 117.672 117.672c0 56.491-40.013 103.803-93.185 115.102V383.304c116.81-9.464 219.306-86.238 261.124-195.573-42.936-17.561-73.266-59.783-73.266-108.965 0-64.886 52.786-117.672 117.672-117.672s117.672 52.786 117.672 117.672c0 63.416-50.423 115.265-113.282 117.582zM251.367 78.766c0-37.981-30.907-68.888-68.888-68.888s-68.888 30.907-68.888 68.888c0 37.981 30.907 68.888 68.888 68.888 2.756 0 5.47-0.181 8.143-0.498 1.126-0.242 2.254-0.402 3.375-0.484 32.516-5.499 57.37-33.85 57.37-67.906z m149.889 568.542c0 61.397 49.939 111.336 111.336 111.336s111.336-49.939 111.336-111.336-49.939-111.336-111.336-111.336-111.336 49.939-111.336 111.336z m180.129-568.542c0-37.981-30.907-68.888-68.888-68.888s-68.888 30.907-68.888 68.888c0 37.981 30.907 68.888 68.888 68.888s68.888-30.906 68.888-68.888z m261.129-68.888c-37.981 0-68.888 30.907-68.888 68.888 0 34.139 24.975 62.547 57.608 67.949a24.643 24.643 0 0 1 3.172 0.446 69.135 69.135 0 0 0 8.108 0.493c37.981 0 68.888-30.907 68.888-68.888 0.001-37.981-30.906-68.888-68.888-68.888z"  horiz-adv-x="1024" />

    
    <glyph glyph-name="duihao" unicode="&#58902;" d="M512-66C263.47500019-66 62 135.47500018999995 62 384 62 632.52499981 263.47500019 834 512 834 760.52499981 834 962 632.52499981 962 384 962 135.47500018999995 760.52499981-66 512-66ZM774.59999961 522.0999999000001C758.17499961 538.4249997100001 731.5499999 538.4249997100001 715.1249999 522.0999999000001L477.19999971 285.3999999 358.2249998 403.6999998C341.79999981 420.0500001 315.1750001 420.0500001 298.7500001 403.6999998 282.3250001 387.375 282.3250001 360.89999971 298.7500001 344.55000028999996L447.44999961 196.6750002C463.87499961 180.32499989999997 490.50000019 180.32499989999997 506.94999981 196.6750002L774.59999961 462.95000039C791.02499961 479.27500019 791.02499961 505.7750001 774.59999961 522.0999999000001Z"  horiz-adv-x="1024" />

    
    <glyph glyph-name="zizhi" unicode="&#58919;" d="M859.783192 335.626057a378.589756 378.589756 0 0 1 40.226753 169.563401 390.810542 390.810542 0 0 1-781.621084 0 378.589756 378.589756 0 0 1 40.226753-169.563401L0 64.731974s101.839881-20.113376 203.679761-41.245152L339.381402-128l145.885629 248.998508h50.919941L679.781203-128l135.701641 151.486822c101.839881 21.131775 203.679761 41.245152 203.679762 41.245152zM330.979612-29.215316s-48.883143 54.738936-94.711089 99.293884c-65.177524 18.585778-147.667827 37.426156-147.667827 37.426156l101.839881 174.146196a447.586275 447.586275 0 0 1 234.486325-150.213824z m178.219791 314.939831A222.774739 222.774739 0 1 0 731.974142 508.499254 222.774739 222.774739 0 0 0 509.199403 285.724515z m281.58727-207.244157c-45.827946-44.554948-103.112879-107.950273-103.112879-107.950273l-92.674291 160.652411a425.436101 425.436101 0 0 1 226.084535 150.213824l108.968672-174.146196a1215.713575 1215.713575 0 0 1-139.266037-28.769766zM509.199403 508.499254m-159.124813 0a159.124814 159.124814 0 1 1 318.249627 0 159.124814 159.124814 0 1 1-318.249627 0Z"  horiz-adv-x="1024" />

    
    <glyph glyph-name="yuyue" unicode="&#59053;" d="M720 432H560V672a48 48 0 1 1-96 0v-288a48 48 0 0 1 48-48h208a48 48 0 1 1 0 96zM512 896C229.232 896 0 666.768 0 384s229.232-512 512-512 512 229.232 512 512S794.768 896 512 896z m0-928C282.256-32 96 154.25599999999997 96 384S282.256 800 512 800s416-186.24 416-416c0-229.744-186.256-416-416-416z"  horiz-adv-x="1024" />

    
    <glyph glyph-name="fenxiao1" unicode="&#58931;" d="M861.35530789 200.48114332C819.22831853 311.13913090000005 699.13685162 392.66472371 555.33268292 400.40261777V481.99387105c75.37359238 10.71192742 133.35642815 74.74016189 133.35642815 152.37092971 0 85.1539135-69.66035842 154.13990021-155.58134079 154.13990022-85.92870713 0-155.56048393-68.98521424-155.56048393-154.13990022 0-77.62767792 57.97588349-141.6590023 133.33402633-152.37092971v-81.59125328C367.02229817 392.66472371 246.86439832 311.05956585 204.77294285 200.32433064999998 167.34106381 188.55642826999997 140.01240094 154.25153287 140.01240094 113.26703580000003c0-50.66207886 41.4572525-91.74622536 92.58204461-91.74622535 51.1471939 0 92.59981155 41.0841465 92.59981155 91.74622535 0 47.24464417-36.18664741 85.71164131-82.53058434 90.7226944C284.8918565 294.46600469 388.0305608 360.22613079999996 510.88208516 367.39393743000005v-165.34080505c-40.35029411-9.90623474-70.36331177-45.76766968-70.36331177-88.78609658 0-50.66207886 41.46420479-91.74622536 92.5820446-91.74622536 51.13174438 0 92.59131431 41.0841465 92.59131432 91.74622536 0 43.01765442-30.04468918 78.87908935-70.37335395 88.78609658v165.34080505c122.89401054-7.16317178 226.04816437-72.94415474 268.2408142-163.43587876-46.12455368-5.24588585-82.07868577-43.57692718-82.07868576-90.68638801 0-50.66207886 41.44412041-91.74236298 92.59054184-91.74236299 51.11861228 0 92.58281708 41.08028412 92.58281708 91.74236299 0 41.17607117-27.57585525 75.60610771-65.29895783 87.20947266z m0 0"  horiz-adv-x="1024" />

    
    <glyph glyph-name="erweima" unicode="&#58921;" d="M995.573805 361.148745H28.418195c-15.694831 0-28.414695 12.719863-28.414695 28.414695 0 15.688831 12.719863 28.414695 28.414695 28.414695h967.15561c15.688831 0 28.413695-12.725863 28.413695-28.414695 0-15.694831-12.724863-28.414695-28.413695-28.414695M514.398974-26.224093c-15.692831 0-28.415695 12.724863-28.415695 28.413694V245.371989c0 15.687831 12.720863 28.413695 28.415695 28.413695s28.414695-12.725863 28.414695-28.413695V2.189601c0-15.688831-12.719863-28.413695-28.414695-28.413694M684.092151-127.989c-15.689831 0-28.414695 12.725863-28.414694 28.414695V160.516901c0 15.694831 12.724863 28.414695 28.414694 28.414694 15.692831 0 28.412695-12.719863 28.412695-28.414694v-260.091206c0.002-15.688831-12.718863-28.414695-28.412695-28.414695M825.502632-127.989c-15.687831 0-28.413695 12.725863-28.413694 28.414695V160.516901c0 15.694831 12.725863 28.414695 28.414694 28.414694 15.693831 0 28.413695-12.719863 28.413695-28.414694v-260.091206c0-15.688831-12.719863-28.414695-28.413695-28.414695M966.915113-127.989c-15.689831 0-28.414695 12.725863-28.414695 28.414695v344.946294c0 15.687831 12.725863 28.413695 28.414695 28.413695 15.693831 0 28.413695-12.725863 28.413695-28.413695v-344.946294c0-15.688831-12.719863-28.414695-28.413695-28.414695M514.398974 494.236316c-15.692831 0-28.415695 12.719863-28.415695 28.414695V867.585305C485.983279 883.280137 498.706143 896 514.398974 896c15.694831 0 28.414695-12.719863 28.414695-28.414695v-344.934294c0-15.694831-12.719863-28.414695-28.414695-28.414695M936.231443 836.530639c15.621832 0 28.280696-12.659864 28.280696-28.283696V581.983373c0-15.617832-12.658864-28.282696-28.281696-28.282696H709.969873c-15.616832 0-28.281696 12.664864-28.281696 28.282696V808.246943c0 15.622832 12.664864 28.282696 28.281696 28.282696H936.231443m-622.214316 0c15.623832 0 28.287696-12.659864 28.287696-28.282696V581.983373c0-15.617832-12.664864-28.282696-28.287696-28.282696H87.762557c-15.623832 0-28.287696 12.664864-28.287696 28.282696V808.246943c0 15.622832 12.664864 28.282696 28.287696 28.282696h226.25357m0-622.214316c15.623832 0 28.287696-12.662864 28.287696-28.280696v-226.26757c0-15.619832-12.664864-28.279696-28.287696-28.279696H87.762557c-15.623832 0-28.287696 12.659864-28.287696 28.279696v226.26757c0 15.617832 12.664864 28.279696 28.287696 28.279696h226.25357M936.230443 893.360028H709.969873c-46.928496 0-85.109086-38.18159-85.109085-85.112085V581.983373c0-46.929496 38.18059-85.112086 85.109085-85.112085H936.231443c46.928496 0 85.109086 38.18259 85.109086 85.112085V808.246943c0 46.930496-38.18059 85.112086-85.109086 85.112085m-622.214316 0H87.762557c-46.934496 0-85.117086-38.18159-85.117085-85.112085V581.983373c0-46.929496 38.18259-85.112086 85.117085-85.112085h226.25357c46.935496 0 85.117086 38.18259 85.117085 85.112085V808.246943C399.127213 855.177439 360.951623 893.360028 314.016127 893.360028m0-622.214316H87.762557c-46.934496 0-85.117086-38.18259-85.117085-85.110085v-226.26757c0-46.927496 38.18259-85.109086 85.117085-85.109086h226.25357c46.935496 0 85.117086 38.18159 85.117085 85.109086v226.26757c-0.006 46.927496-38.18159 85.109086-85.117085 85.109085"  horiz-adv-x="1024" />

    
    <glyph glyph-name="biaodan" unicode="&#59029;" d="M832 896H192C121.6 896 64 838.4 64 768v-768c0-70.4 57.6-128 128-128h192a64 64 0 0 1 0 128H256c-35.2 0-64 28.768-64 64V704c0 35.232 28.8 64 64 64h512.032C803.232 768 832 739.232 832 704v-192.032a64 64 0 0 1 128 0V768c0 70.4-57.6 128-128 128zM640 511.968h-256c-35.232 0-64 28.8-64 64.032 0 35.2 28.768 63.968 64 63.968h256c35.232 0 64.032-28.768 64.032-63.968 0-35.232-28.8-64.032-64.032-64.032zM640 320h-256c-35.232 0-64 28.8-64 64s28.768 64 64 64h256c35.232 0 64.032-28.8 64.032-64s-28.8-64-64.032-64zM666.912 249.6L545.28 128H384c-35.232 0-64 28.768-64 64 0 35.2 28.768 64 64 64h256c9.632 0 18.592-1.92 26.912-6.4zM681.28-95.328l-95.04-31.648a19.136 19.136 0 0 0-24.256 24.256l31.648 95.04a18.08 18.08 0 0 0 4.608 7.52l318.56 318.56a56.992 56.992 0 0 0 80.576 0l9.984-9.952a57.056 57.056 0 0 0 0-80.576l-318.592-318.624a21.376 21.376 0 0 0-7.488-4.576z"  horiz-adv-x="1024" />

    
    <glyph glyph-name="woyemiantubiao-" unicode="&#58922;" d="M534.69273808 603.8188123c56.81262441 0 102.88161678 47.46087993 102.88161679 106.04443269 0 32.94548119-14.58375035 62.38638838-37.46290195 81.85417273 1.96355565-6.67981748 3.33680185-13.6144001 3.33680185-20.95909244 0-40.02298083-31.45417311-72.45893177-70.27789369-72.45893177s-70.30896261 32.42973715-70.30896261 72.45893177c0 5.85959803 0.85128837 11.48928607 2.14375538 16.93877438a107.14427241 107.14427241 0 0 1-33.18160498-77.82764089c0-58.57733898 46.06277859-106.05064647 102.86918921-106.05064647zM531.37457759 738.96239408c37.85437033-0.03106892 68.56288939 31.59087635 68.5939583 70.61965179v0.09320675c0.00621378 39.02877545-30.67745014 70.66936206-68.53182047 70.67557585-37.85437033 0.00621378-68.54424803-31.62194527-68.55046182-70.65072072l-0.00621378-0.02485513c-0.02485514-39.02877545 30.64638123-70.68178963 68.49453777-70.71285854zM720.42273299-112.35082847000001l10.69392175 162.52151277-371.42892088-38.56895545zM832.64366668 782.85656215l-180.07545174-27.39035856a141.79854412 141.79854412 0 0 0 17.06926383-67.6432494c0-76.82100793-60.40419138-139.10176199-134.93231312-139.10176199s-134.93231312 62.27454028-134.93231312 139.10176199c0 10.19060528 1.1433362 20.10159028 3.14417455 29.67703097l-222.2608293-33.80298335c8.00335341-214.84778533 104.20515271-641.80307741 104.20515272-641.8030774l692.09122891 121.20606492c-48.11332722 49.57978017-144.30891274 619.75657282-144.30891273 619.75657282z m-521.29295626-339.34094183l294.45878216 43.64561673 15.72708655-52.95386473-294.4401408-43.6580443-15.74572791 52.9662923z m77.41753117-267.62766413l-24.88620373 56.5454317 362.41893451 53.15270582 24.89241752-56.54543172-362.4251483-53.1527058z m-24.87998995 111.77354127l-25.55107859 52.10879013 466.81671452 63.28738702 25.5510786-52.11500391-466.81671453-63.28117324zM47.05363437 105.26830441000004l165.66568733-66.1208724c-13.35963497 27.55813072-66.79817482 443.46531536-66.79817482 443.46531537l-98.86751251-377.34444297z"  horiz-adv-x="1024" />

    
    <glyph glyph-name="kefu1" unicode="&#58977;" d="M815.504-72.714c-8.156 0-16.311 2.331-23.301 6.991l-37.283 24.467c-1.165 0.582-2.331 1.165-2.913 2.331l-32.039 21.554c-86.799-13.981-173.598 2.913-244.668 48.933-11.069 6.991-13.981 21.554-6.991 32.039 6.991 11.069 21.554 13.981 32.039 6.991 64.080-40.778 142.141-55.342 220.784-40.778 5.825 1.165 12.234 0 17.476-3.495l40.778-27.379c0.582-0.582 1.747-1.165 2.331-1.747l29.71-19.223v70.487c0 8.156 4.078 15.729 11.069 19.807 72.818 44.273 115.926 116.509 115.926 192.821 0 16.311-1.747 32.622-5.825 48.351-5.243 21.554-13.981 42.526-26.214 62.332-6.991 11.069-3.495 25.632 7.573 32.039 11.069 6.991 25.632 3.495 32.039-7.573 14.563-23.884 25.632-49.516 32.039-75.73 4.66-19.223 6.991-39.613 6.991-60.002 0-88.546-47.186-171.85-126.994-225.444v-66.41c0-15.729-8.738-29.71-22.137-37.283-6.407-2.331-13.398-4.078-20.389-4.078zM256.263 28.067c-6.991 0-13.981 1.747-20.389 5.243-13.398 6.991-22.137 21.554-22.137 36.7v99.033c-108.935 69.905-173.598 181.17-173.598 300.010 0 205.055 190.492 371.662 424.673 371.662 234.182 0 424.673-166.607 424.673-371.662 0-205.055-190.492-371.662-424.673-371.662-26.214 0-53.594 2.331-80.974 6.991l-50.098-33.205c-1.165-1.165-2.331-1.747-4.078-2.913l-51.264-33.788c-5.825-4.078-13.981-6.407-22.137-6.407zM465.396 794.11c-208.55 0-378.070-145.635-378.070-325.058 0-106.022 60.585-206.22 162.529-266.804 6.991-4.078 11.651-11.651 11.651-20.389v-103.11l43.691 29.127c0.582 0.582 1.165 1.165 2.331 1.747l58.836 39.030c5.243 3.495 11.069 4.66 17.476 3.495 27.379-5.243 55.342-8.156 81.556-8.156 208.55 0 378.070 145.635 378.070 325.058-0.582 179.423-170.102 325.058-378.070 325.058zM465.396 794.11zM364.617 487.693c0-22.137-18.059-40.195-40.195-40.195s-40.195 18.059-40.195 40.195c0 22.137 18.059 40.195 40.195 40.195 22.137 0 40.195-18.059 40.195-40.195zM512.582 487.693c0-22.137-18.059-40.195-40.195-40.195s-40.195 18.059-40.195 40.195c0 22.137 18.059 40.195 40.195 40.195 22.137 0 40.195-18.059 40.195-40.195zM660.548 487.693c0-22.137-18.059-40.195-40.195-40.195s-40.195 18.059-40.195 40.195c0 22.137 18.059 40.195 40.195 40.195 22.137 0 40.195-18.059 40.195-40.195z"  horiz-adv-x="1024" />

    
    <glyph glyph-name="pingjia" unicode="&#59189;" d="M759.3-50.8c-4.6 0-9.6 0.4-15 1.5-16.3 3.1-34.6 11-55.9 24.1-75.3 46.3-145.8 80.5-174.3 93.7l-174.6-94.4c-2.8-1.6-15.1-8.3-30.7-13.1-34-10.6-56.1-3.6-68.7 4.1-11.8 7.2-20.9 18.5-26.2 32.6-4.9 13-6.9 28.4-5.9 46.9 4.1 78.5 20.3 179.9 26.8 218.3l-153.1 154c-1.1 1.1-2.1 2.3-3.1 3.6-0.8 1.1-7.7 10.9-13.4 24.4-8.9 21.2-10.6 40.7-5 58 4.7 14.4 16.7 33.6 47.4 43.7 50.8 16.6 192.3 32.5 241 37.7l99.6 197.4c0.8 1.7 1.8 3.2 3 4.7 2.6 3.3 26 32.7 61.2 32.7 15.3 0 37.8-5.7 58.5-32.7 31.5-41.2 93.7-162.5 114.3-203.5l221.3-41.1c0.4-0.1 0.8-0.2 1.3-0.3 4.2-1 41.6-10.5 53.1-45 8.4-25.3-0.3-53.6-25.9-83.8-45.3-53.5-121.4-128.6-150-156.4L817.6 36c1.2-7.5 7.7-54.9-25.2-77.2-7-4.7-17.8-9.6-33.1-9.6zM513 132c4.1 0 8.2-0.8 12.1-2.5 3.8-1.7 94.1-41.5 194.8-103.6 22.2-13.7 33.7-16.2 38.2-16.6 1.1 4.3 1.2 12.2 0.3 16.9 0 0.3-0.1 0.5-0.1 0.8l-34.9 235.7c-1.4 9.6 1.9 19.3 8.9 26 1 1 103.5 99.7 156.9 162.8 14.5 17.1 14.8 25.2 14.8 26.1-1.2 1.8-6.7 4.6-9.2 5.4l-235.1 43.6c-9.3 1.7-17.2 7.7-21.4 16.1-22.5 45.2-86.9 170.5-115 207.1-5.5 7.2-9.5 9.1-10.8 9.1-3 0-8.5-3.9-12.2-7.7L394.8 542.5c-4.6-9.2-13.6-15.3-23.8-16.3-52.8-5.2-199.6-21.9-244.6-36.7-5.6-1.9-8.7-4-9.1-5.2-1.8-5.4 3.9-19.2 8.9-27l162.1-163.1c6.9-6.9 10-16.8 8.3-26.4-0.2-1.3-23.7-133.3-28.6-226.3-0.9-17.7 2.5-24.4 3.5-25.2 0.8-0.5 6.4-1.8 18.3 1.7 10.7 3.1 19.5 8 20.2 8.4 0.3 0.2 0.4 0.2 0.7 0.4l188 101.6c4.5 2.4 9.4 3.6 14.3 3.6zM368 556zM391.3 322.4c-16.6 0-30 13.4-30 30 0 13.1 1.6 26.1 4.8 38.7 7 27.7 21.6 53 42.1 73.2 20.5 20.2 46.1 34.3 73.9 40.9 11.8 2.8 24 4.2 36.2 4.2 16.6 0 30-13.4 30-30s-13.4-30-30-30c-7.6 0-15.1-0.9-22.4-2.6-34.7-8.2-62.8-35.9-71.6-70.5-2-7.8-3-15.8-3-24 0-16.5-13.4-29.9-30-29.9z"  horiz-adv-x="1024" />

    
    <glyph glyph-name="diannaoshouji" unicode="&#58932;" d="M367.015625 493.24125H161.391875c-15.609375 0-28.26375-14.0653125-28.26375-31.41375v-337.695c0-17.35125 12.654375-31.41375 28.26375-31.41375h205.621875c15.609375 0 28.26375 14.0625 28.26375 31.41375V461.8275c0 17.3484375-12.6553125 31.41375-28.26375 31.41375zM237.7728125 468.7875h51.931875a4.5796875 4.5796875 0 1 0 0-9.159375h-51.931875a4.5796875 4.5796875 0 1 0 0 9.159375z m25.723125-356.889375c-6.6890625 0-12.1115625 5.4225-12.1115625 12.1125s5.4225 12.1125 12.1125 12.1125 12.1115625-5.4234375 12.1115625-12.1125-5.4234375-12.1125-12.1125-12.1125z m109.95 30.9853125H154.235V444.12H373.446875v-301.2365625z m339.1359375-10.7925h-86.1009375v21.945c0 5.2978125-4.2965625 9.5934375-9.5934375 9.5934375H508.9615625c-5.2978125 0-9.5934375-4.295625-9.5934375-9.5934375v-21.945h-63.3178125c-5.2978125 0-9.5934375-4.295625-9.5934375-9.5934375v-16.06875c0-5.296875 4.295625-9.5934375 9.5934375-9.5934375h276.5325c5.2978125 0 9.5934375 4.295625 9.5934375 9.5934375v16.06875c0 5.296875-4.295625 9.5934375-9.5934375 9.5934375z m139.34625 542.7525H263.8475c-21.193125 0-38.37375-17.1815625-38.37375-38.3746875v-112.723125h30.6984375V641.2659375000001a4.7971875 4.7971875 0 0 0 4.7971875 4.79625h597.675a4.79625 4.79625 0 0 0 4.79625-4.79625v-361.674375a4.79625 4.79625 0 0 0-4.79625-4.7971875h-432.1875v-84.4228125h425.4721875c21.1940625 0 38.37375 17.1796875 38.37375 38.37375V636.46875c0 21.193125-17.1796875 38.3746875-38.37375 38.3746875z m-292.8703125-451.55625c-9.384375 0-16.9903125 7.606875-16.9903125 16.9903125s7.606875 16.9903125 16.9903125 16.9903125 16.989375-7.606875 16.989375-16.9903125-7.6059375-16.989375-16.989375-16.989375z"  horiz-adv-x="1024" />

    
    <glyph glyph-name="yunying-copy" unicode="&#58967;" d="M854.4-13h-692.8c-39.9 0-72.3 32.4-72.3 72.3v692.9c0 39.9 32.4 72.3 72.3 72.3h692.8c39.9 0 72.3-32.4 72.3-72.3v-692.8c0-40-32.4-72.4-72.3-72.4zM393.5 635.3c85.3 45.2 189.1 35.9 265.1-23.5-10.5-34.3 5.2-71.1 37.2-87.3 32-16.2 71-7 92.4 21.8 21.4 28.8 18.9 68.8-5.8 94.7-24.7 26-64.5 30.4-94.3 10.4-92.8 71.8-219.4 81.6-322.2 25l1-0.9c11.5-11.4 20.5-25.1 26.6-40.2zM262.4 418.2c0 33.8 7 67.3 20.7 98.2h4.7c35.4-0.1 65.9 25.1 72.5 59.9s-12.5 69.4-45.5 82.3c-33 12.9-70.5 0.6-89.3-29.4-18.8-30-13.6-69.2 12.4-93.2-31.4-72-32.8-153.5-3.9-226.5s85.8-131.4 158-162.3c0.3 17 4.1 33.7 11.1 49.1-85.8 40.6-140.6 127-140.7 221.9zM746.8 475.3c30.6-128.3-45.5-257.9-172.6-293.5-16.4 31.9-53.4 47.3-87.6 36.5-34.2-10.7-55.7-44.5-50.9-80 4.7-35.5 34.4-62.5 70.2-63.8 35.8-1.4 67.4 23.2 74.9 58.3 76 19.3 141.2 68.2 181.1 135.8s51.1 148.3 31.2 224.3c-14.1-9-29.9-15-46.3-17.6z"  horiz-adv-x="1024" />

    
    <glyph glyph-name="peixun" unicode="&#58918;" d="M915.2 512v-160l51.2-51.2-51.2-51.2h-51.2l-51.2 51.2 51.2 51.2V454.4C665.6 371.2 640 364.8 595.2 345.6s-121.6-19.2-160 0-230.4 96-332.8 147.2c-64 32-70.4 51.2 6.4 83.2 96 38.4 243.2 121.6 326.4 153.6 51.2 19.2 115.2 25.6 160 0 83.2-32 243.2-121.6 332.8-160 83.2-38.4 25.6-51.2 6.4-64l-19.2 6.4z m-377.6-268.8c44.8 19.2 211.2 102.4 217.6 108.8v-268.8s-38.4-64-268.8-51.2c-172.8 6.4-217.6 51.2-217.6 51.2V352s140.8-83.2 217.6-108.8c6.4 0 51.2-6.4 51.2 0z"  horiz-adv-x="1024" />

    
    <glyph glyph-name="pinpai" unicode="&#58950;" d="M810.31097492 682.31056787A421.87374673 421.87374673 0 0 1 213.68961093 85.68920389000004 421.87374673 421.87374673 0 0 1 810.31097492 682.31056787z m-27.57493735-569.73010309A383.10931 383.10931 0 0 0 241.26454827 654.73563135a383.08652134 383.08652134 0 0 0 541.4714893-541.47149012z m-410.20567383 266.17790396a24.38444834 24.38444834 0 0 1 24.38444833 24.38444916v143.34409342a51.95938568 51.95938568 0 0 0 55.6056579 47.17365299h118.9596459a51.95938568 51.95938568 0 0 0 55.37776631-47.17365299v-142.66041779a24.49839413 24.49839413 0 0 1 48.99678825 0v142.66041779a100.50038992 100.50038992 0 0 1-104.37455456 96.17044125h-118.9596459a100.50038992 100.50038992 0 0 1-104.37455456-96.17044125v-142.66041779a24.38444834 24.38444834 0 0 1 24.38444833-24.38444834z m290.56235229-16.40822662l-91.15681613 1.82313611-30.08174909 85.68740781a31.22120957 31.22120957 0 0 1-58.7961469 0l-30.08174991-85.68740781-91.15681613-1.82313611a31.22120957 31.22120957 0 0 1-18.00347114-56.06144192l72.92545341-54.69408984-26.43547687-86.59897587a30.99331796 30.99331796 0 0 1 19.14293161-38.05797079H428.59180566a31.22120957 31.22120957 0 0 1 8.43200574 4.10205706l75.43226596 51.95938486 75.43226514-51.95938486a30.99331796 30.99331796 0 0 1 47.40154458 34.63959018l-26.43547687 86.59897504 72.92545341 54.69408984a31.22120957 31.22120957 0 0 1-18.00347114 56.06144276z m-103.00720248-93.20784466l-1.82313611-1.36735209 25.29601639-82.72481121L512.00029333 235.87005936000003l-71.78599291-49.45257313 25.29601638 82.72481123-68.36761231 52.18727727 85.00373137 1.82313611h2.05102852l28.71439701 81.81324317 28.03072055-79.76221463v-2.05102854l87.28265231-1.82313611-68.3676123-50.8199252z"  horiz-adv-x="1024" />

    
    <glyph glyph-name="zhifu" unicode="&#59072;" d="M866.670131 721.530129L512 834.295993 157.329869 721.530129c-9.107225-2.865194-15.246927-11.256121-15.144599-20.874988l1.841911-446.663335 0.306985-3.990807c2.967523-13.507345 20.056361-79.611472 85.444189-143.976016 55.154992-54.336365 192.070351-126.375537 250.49985-157.176377l6.753673-3.581493c5.935045-3.172179 10.64215-5.62806 13.712001-7.367643l6.651344-3.581493c0.818627-0.409313 1.637254-0.61397 2.55821-0.61397 0.818627 0 1.637254 0.204657 2.45588 0.61397l9.925852 5.014091c34.177676 16.781853 208.135905 103.760967 271.784151 166.590586 66.411112 65.387829 82.988308 132.310583 85.44419 143.566703l2.251224 451.063456c0.102328 9.721195-6.037374 18.112122-15.144599 20.977316z m-75.211352-438.272409L787.979614 266.987509c-6.753672-19.544719-23.330868-56.587589-59.350454-92.504847-43.694214-43.591886-158.608974-104.477266-205.884681-128.626761-3.274508-1.637254-6.958329-2.558209-10.642151-2.558209-2.865194 0-5.832717 0.511642-8.493254 1.637254h-0.409314l-2.251224 1.22794c-43.796542 23.330868-160.246228 85.137204-203.4288 128.319776-46.866394 46.661737-60.783052 95.472369-63.136604 104.784251l-0.306985 1.227941-1.432597 354.05616c0 9.823524 6.139702 18.419107 15.451583 21.38663l253.67203 81.555711c3.683821 1.125612 7.469971 1.739582 11.256121 1.739582s7.572299-0.61397 11.25612-1.739582l253.569702-81.555711c9.311882-2.967523 15.553912-11.563106 15.553912-21.38663l-1.944239-351.293294zM624.765864 388.655941c17.907465 0 32.335765 15.144599 32.335765 33.87069s-14.530629 33.870691-32.335765 33.870691h-74.802039l79.09983 82.783651c12.58639 13.20036 12.58639 34.689317 0 47.889678-6.037374 6.344359-14.325972 9.925852-22.921554 9.925851-8.595583 0-16.781853-3.581493-22.921555-9.925851l-71.425203-74.699711-72.346157 75.722994c-6.037374 6.344359-14.325972 9.925852-22.921555 9.925852-8.595583 0-16.781853-3.581493-22.921555-9.925852-12.58639-13.20036-12.58639-34.689317 0-47.889677L473.831518 456.49965h-75.722994c-17.907465 0-32.335765-15.246927-32.335765-33.973019 0-18.726092 14.530629-33.870691 32.335765-33.87069h80.941741v-26.196063H398.108524c-17.907465 0-32.335765-15.144599-32.335765-33.87069s14.530629-33.870691 32.335765-33.870691h80.941741v-78.792845c0-18.726092 14.530629-33.870691 32.438093-33.87069 17.805136 0 32.335765 15.144599 32.335765 33.87069v78.792845h80.941741c17.907465 0 32.335765 15.144599 32.335765 33.870691s-14.530629 33.870691-32.335765 33.87069h-80.941741V388.655941h80.941741z"  horiz-adv-x="1024" />

    
    <glyph glyph-name="gengduo" unicode="&#59000;" d="M597.33333332 754.78857422h463.48571778a370.78857422 370.78857422 0 1 0-1e-8-741.57714844H597.33333332A370.78857422 370.78857422 0 1 0 597.33333332 754.78857422z m0-46.34857178a324.44000244 324.44000244 0 1 1 0-648.88000488h463.48571778a324.44000244 324.44000244 0 0 1-1e-8 648.88000488H597.33333332z m15.43407441-386.22264862a61.78264618 61.78264618 0 1 0-1e-8 123.56529236 61.78264618 61.78264618 0 0 0 0-123.56529236z m247.22328184 1e-8a61.78264618 61.78264618 0 1 0 1e-8 123.56529234 61.78264618 61.78264618 0 0 0 0-123.56529234z m247.1769333 0a61.78264618 61.78264618 0 1 0 0 123.56529234 61.78264618 61.78264618 0 0 0 0-123.56529234z"  horiz-adv-x="1664" />

    
    <glyph glyph-name="icon-test" unicode="&#58887;" d="M188.716836 352.180791q17.587345 35.174689 53.340565 35.174689 36.939209 0 55.683616-38.385536t18.744407-112.81356q0-76.8-17.87661-113.999548t-54.208362-37.373107q-37.60452 0-55.39435 39.28226t-17.87661 121.346892q0 71.477514 17.587344 106.76791z m246.743503 469.391186H247.900565l-130.719096-218.655819Q54.468701 499.185537 28.695141 415.819209A588.655367 588.655367 0 0 1 2.892655 240.697853q0-141.277288 64.188023-224.498983t171.447684-83.221695q111.367232 0 180.530621 89.093785t69.16339 233.871187q0 120.160904-50.997514 195.774915T309.514124 527.302147a158.517514 158.517514 0 0 1-36.621017-4.107571 168.20791 168.20791 0 0 1-34.277966-12.322712zM830.19209 144.256723Q813.617175 86.056497 770.227345 86.056497q-42.782373 0-59.791187 59.791187t-17.008813 242.664858q0 181.687684 17.008813 241.507797t59.791187 59.791186q43.389831 0 60.080452-58.315932t16.719548-242.983051q0-185.939887-16.835255-244.255819z m130.169492 582.060113q-60.745763 109.920904-190.19209 109.920904t-190.134238-109.342373q-60.745763-109.313446-60.745762-343.763164 0-233.292655 60.745762-342.316836t190.192091-109.024181q129.533107 0 190.19209 109.024181T1021.107345 383.132203q0 233.263729-60.745763 343.184633z"  horiz-adv-x="1024" />

    
    <glyph glyph-name="biaodanmoban" unicode="&#58900;" d="M868.90625001 805.875H155.09374999C119.234375 805.875 90.125 776.765625 90.125 740.90625001V580.171875c0-35.859375 29.109375-64.96875001 64.96875001-64.96875h713.8125c35.859375 0 64.96875001 29.109375 64.96874999 64.96875V740.90625001C933.875 776.765625 904.765625 805.875 868.90625001 805.875z m-32.48437501-217.6875H187.578125c-13.5 0-24.46875001 10.96875001-24.46875 24.46875001V708.421875c0 13.5 10.96875001 24.46875001 24.46875 24.46875h648.421875c13.5 0 24.46875001-10.96875001 24.46875001-24.46875v-95.76562501c0.421875-13.5-10.546875-24.46875001-24.04687501-24.46874999z m-455.625-137.953125H155.09374999C119.234375 449.8125 90.125 420.703125 90.125 384.84375001v-357.75000002C90.125-8.765625 119.234375-37.875 155.09374999-37.875h225.70312501c35.859375 0 64.96875001 29.109375 64.96875 64.96875001V384.84375001c0 35.859375-29.109375 64.96875001-64.96875 65.39062499z m-32.484375-415.125H187.578125c-13.5 0-24.46875001 10.96875001-24.46875 24.46875V352.359375c0 13.5 10.96875001 24.46875001 24.46875 24.46875h160.734375c13.5 0 24.46875001-10.96875001 24.46875001-24.46875v-292.78125c0-13.5-10.96875001-24.46875001-24.46875001-24.46875z m548.015625 393.60937499H533.09375001c-20.671875 0-37.546875-16.875-37.12500002-37.125a36.55810547 36.55810547 0 0 1 36.70312501-35.85937499H895.90625001c20.671875 0 37.546875 16.875 37.12499998 37.125-0.421875 19.828125-16.875 35.859375-36.70312499 35.85937499z m0-372.9375H533.09375001c-20.671875 0-37.546875-16.875-37.12500002-37.125a36.55810547 36.55810547 0 0 1 36.70312501-35.85937499H895.90625001c20.671875 0 37.546875 16.875 37.12499998 37.125-0.421875 19.828125-16.875 35.859375-36.70312499 35.85937499z m0 186.46875001H533.09375001c-20.671875 0-37.546875-16.875-37.12500002-37.125a36.55810547 36.55810547 0 0 1 36.70312501-35.859375H895.90625001c20.671875 0 37.546875 16.875 37.12499998 37.125-0.421875 19.828125-16.875 35.859375-36.70312499 35.859375z"  horiz-adv-x="1024" />

    
    <glyph glyph-name="tuozhuai" unicode="&#58981;" d="M479.011395 340.082771H290.782296v-90.386735c0-75.884004-49.023314-100.599925-109.4854-55.457624l-127.052089 94.982671c-59.849296 44.733774-60.462087 118.370876 0 163.513178l127.052089 94.98267c59.849296 44.631642 109.485401 20.324249 109.4854-55.457624v-90.284603h188.229099V614.613328h-88.344097c-75.884004 0-100.599925 49.023314-55.355491 109.485401L430.192345 851.048685c44.733774 59.951428 118.370876 60.462087 163.513178 0l94.98267-126.949956c44.733774-59.951428 20.324249-109.485401-55.457623-109.485401h-88.241965v-212.638624h188.229099V492.361439c0 75.781873 49.636105 100.089266 109.4854 55.355492l127.052089-94.880539c60.462087-45.142301 59.849296-118.779404 0-163.513177l-127.052089-94.982671c-60.462087-45.142301-109.485401-20.426381-109.4854 55.457624v90.386735H544.988605v-186.492857h88.241965c75.781873 0 100.089266-49.533973 55.355492-109.4854L593.705523-82.845443c-45.142301-60.462087-118.779404-59.951428-163.513178 0l-94.98267 126.949957c-45.142301 60.462087-20.426381 109.485401 55.457623 109.4854h88.344097V340.184903z"  horiz-adv-x="1024" />

    
    <glyph glyph-name="huojian" unicode="&#58920;" d="M558.266182-18.618182c0-41.890909-46.312727-106.938182-46.312727-106.938182s-46.242909 69.399273-46.24291 106.938182c0 31.790545 20.154182 57.762909 46.24291 57.762909 26.018909 0 46.312727-25.972364 46.312727-57.762909m16.500363 498.432c37.538909 34.676364 40.424727 93.952 5.748364 131.537455-34.676364 37.562182-93.882182 40.494545-131.490909 5.818182-37.538909-34.676364-40.424727-93.998545-5.725091-131.537455 34.676364-37.585455 93.905455-40.494545 131.467636-5.818182M837.818182 130.210909v-17.314909l-200.890182 40.494545c-12.916364-43.380364-65.000727-76.567273-125.626182-76.567272-60.718545 0-112.779636 33.256727-125.719273 78.033454L186.181818 115.828364v17.338181c0 98.234182 27.461818 169.006545 89.553455 228.305455C254.021818 641.745455 379.717818 819.432727 503.970909 891.741091L511.255273 896l7.214545-4.258909c124.276364-72.308364 248.482909-249.995636 228.305455-530.315636C810.402909 302.149818 837.818182 231.330909 837.818182 130.210909"  horiz-adv-x="1024" />

    
    <glyph glyph-name="huabanfuben" unicode="&#58928;" d="M460.69607858 751.77573496v-751.10294093H273.25122519V403.35661789A705.27573496 705.27573496 0 0 1 269.11519647 508.08088211a39.20955853 39.20955853 0 0 1-22.99632384 26.63602981q-18.86029432 9.0992645-83.71323551 9.0992645H143.87622547v87.68382331q135.82720624 29.28308862 206.47058862 120.27573523zM975.71446042 497.65808862v-250.64338294a593.93382331 593.93382331 0 0 0-9.26470541-124.41176476 171.89338239 171.89338239 0 0 0-38.54779403-72.79411761 165.44117669 165.44117669 0 0 0-70.47794148-48.63970569 271.32352981 271.32352981 0 0 0-92.31617642-14.88970569 343.45588211 343.45588211 0 0 0-111.83823523 15.55147018 153.36397073 153.36397073 0 0 0-70.97426504 48.47426477 207.29779404 207.29779404 0 0 0-37.55514688 69.31985339 432.29779432 432.29779432 0 0 0-11.08455881 115.80882304V497.65808862a503.60294119 503.60294119 0 0 0 17.70220623 154.85294065 152.86764715 152.86764715 0 0 0 70.97426423 82.72058835 250.80882385 250.80882385 0 0 0 128.87867697 30.93750027A270 270 0 0 0 860.73284281 744.66176477a184.46691192 184.46691192 0 0 0 72.79411761-52.61029431 174.04411762 174.04411762 0 0 0 33.08823551-69.98161789 640.25735285 640.25735285 0 0 0 9.09926449-124.41176395z m-187.44485257 63.0330878a281.24999973 281.24999973 0 0 1-5.79044119 74.94485285 25.64338267 25.64338267 0 0 1-27.13235257 15.05514743 26.80147073 26.80147073 0 0 1-27.62867697-16.54411816 244.52205908 244.52205908 0 0 1-6.78308835-73.95220569V193.74264688000005a271.65441165 271.65441165 0 0 1 6.28676477-78.91544064 26.80147073 26.80147073 0 0 1 27.13235339-13.40073578 26.47058807 26.47058807 0 0 1 27.46323523 16.54411816 235.91911733 235.91911733 0 0 1 6.45220569 70.97426422z"  horiz-adv-x="1164" />

    
    <glyph glyph-name="shishi" unicode="&#59181;" d="M567.3 434.6c5.2 1.2 10.2 4 13.9 8.3l90 105c43-41.9 69.7-100.4 69.7-165.1 0-127.2-103.2-230.4-230.4-230.4S280.1 255.60000000000002 280.1 382.79999999999995s103.2 230.4 230.4 230.4c44 0 85.2-12.4 120.2-33.8l-88.4-103.2c-5.2-6.1-7.1-13.9-5.8-21.2-8.1 2.9-16.9 4.5-26 4.5-42.4 0-76.8-34.4-76.8-76.8s34.4-76.8 76.8-76.8 76.8 34.4 76.8 76.8c0.1 20-7.5 38.2-20 51.9m137.3 152.3c53.9-51.3 87.6-123.8 87.6-204.1 0-155.5-126.1-281.6-281.6-281.6-155.5 0-281.6 126.1-281.6 281.6 0 155.5 126.1 281.6 281.6 281.6 56.8 0 109.6-16.8 153.8-45.7l31.5 36.8c9.2 10.7 25.4 12 36.1 2.8 10.7-9.2 12-25.4 2.8-36.1l-30.2-35.3m-194-613.7c226.2 0 409.6 183.4 409.6 409.6 0 226.2-183.4 409.6-409.6 409.6C284.4 792.4 101 609 101 382.79999999999995c0-226.2 183.4-409.6 409.6-409.6M485 382.79999999999995c0 14.1 11.5 25.6 25.6 25.6 14.1 0 25.6-11.5 25.6-25.6 0-14.1-11.5-25.6-25.6-25.6-14.1 0-25.6 11.4-25.6 25.6"  horiz-adv-x="1024" />

    
    <glyph glyph-name="tuwen" unicode="&#59234;" d="M842.90820313-26.009765629999947H182.41015625c-43.50585938 0-77.78320313 35.59570313-77.78320313 77.78320313V716.2265625c0 43.50585938 35.59570313 77.78320313 77.78320313 77.78320313h660.49804688c43.50585938 0 77.78320313-35.59570313 77.78320312-77.78320313v-664.453125c0-43.50585938-35.59570313-77.78320313-77.78320312-77.78320313z m-661.81640625 767.28515625c-14.50195313 0-25.04882813-11.86523438-25.04882813-25.04882812v-664.453125c0-14.50195313 11.86523438-25.04882813 25.04882813-25.04882813H841.58984375c14.50195313 0 25.04882813 11.86523438 25.04882813 25.04882813V716.2265625c0 14.50195313-11.86523438 25.04882813-25.04882813 25.04882813h-660.49804688zM373.57226562 413.00390625c-64.59960938 0-117.33398438 52.734375-117.33398437 117.33398438s52.734375 117.33398438 117.33398438 117.33398437 117.33398438-52.734375 117.33398437-117.33398438-52.734375-117.33398438-117.33398438-117.33398437z m1e-8 180.61523438c-35.59570313 0-64.59960938-29.00390625-64.59960938-64.59960938s29.00390625-64.59960938 64.59960938-64.59960938 64.59960938 29.00390625 64.59960937 64.59960938-29.00390625 64.59960938-64.59960937 64.59960938zM741.39453125 579.1171875H564.734375c-14.50195313 0-26.3671875 11.86523438-26.3671875 26.3671875s11.86523438 26.3671875 26.3671875 26.3671875h176.66015625c14.50195313 0 26.3671875-11.86523438 26.3671875-26.3671875s-11.86523438-26.3671875-26.3671875-26.3671875zM741.39453125 428.82421875H564.734375c-14.50195313 0-26.3671875 11.86523438-26.3671875 26.3671875s11.86523438 26.3671875 26.3671875 26.3671875h176.66015625c14.50195313 0 26.3671875-11.86523438 26.3671875-26.3671875s-11.86523438-26.3671875-26.3671875-26.3671875zM741.39453125 278.53125h-458.7890625c-14.50195313 0-26.3671875 11.86523438-26.3671875 26.3671875s11.86523438 26.3671875 26.3671875 26.3671875h458.7890625c14.50195313 0 26.3671875-11.86523438 26.3671875-26.3671875s-11.86523438-26.3671875-26.3671875-26.3671875zM741.39453125 128.23828125h-458.7890625c-14.50195313 0-26.3671875 11.86523438-26.3671875 26.3671875s11.86523438 26.3671875 26.3671875 26.3671875h458.7890625c14.50195313 0 26.3671875-11.86523438 26.3671875-26.3671875s-11.86523438-26.3671875-26.3671875-26.3671875z"  horiz-adv-x="1024" />

    
    <glyph glyph-name="brand" unicode="&#58935;" d="M512 805.875C279.96875 805.875 90.125 616.03125 90.125 384c0-91.40624973 28.12499973-175.78124973 80.85937473-249.60937473 10.546875-14.06250027 35.15625027-17.57812473 49.21875054-7.03125054 14.06250027 10.546875 17.57812473 35.15625027 7.03124973 49.21875054C185.046875 236.34375 160.43749973 306.65624973 160.43749973 384 160.43749973 577.35937527 318.64062473 735.56250027 512 735.56250027s351.56250027-158.203125 351.56250027-351.56250027-158.203125-351.56250027-351.56250027-351.56250027c-56.25000027 0-112.49999973 14.06250027-161.71875027 38.67187554-17.57812473 10.546875-38.67187473 3.51562527-45.70312446-14.06250027s-3.51562527-38.67187473 14.06249946-49.21874973c59.76562473-28.12499973 126.5625-45.70312527 193.35937527-45.70312527 232.03125 0 421.875 189.84375 421.875 421.875S744.03125 805.875 512 805.875zM645.59374973 422.67187473c3.51562527 10.546875 3.51562527 21.09375 3.51562527 31.640625 0 10.546875-3.51562527 21.09375-7.03124973 31.640625-3.51562527 10.546875-10.546875 21.09375-17.57812554 28.12500054-7.03124973 7.03124973-17.57812473 14.06250027-31.640625 21.09375-14.06250027 7.03124973-28.12499973 10.546875-45.70312446 10.546875H434.65624973c-10.546875 0-21.09375 0-28.12499973-3.51562527-7.03124973-3.51562527-14.06250027-7.03124973-21.09375-14.06250027s-7.03124973-10.546875-10.546875-17.57812473c0-7.03124973-3.51562527-17.57812473-3.51562527-24.60937527v-228.51562473c0-10.546875 3.51562527-17.57812473 10.546875-24.60937527 7.03124973-7.03124973 14.06250027-10.546875 24.60937527-7.03124973s17.57812473 3.51562527 21.09375 14.06250027c3.51562527 7.03124973 7.03124973 14.06250027 7.03124973 21.09375v94.921875h105.46875c10.546875 0 17.57812473-3.51562527 21.09375-7.03125054 3.51562527-3.51562527 7.03124973-10.546875 10.546875-17.57812473 0-7.03124973 3.51562527-17.57812473 7.03125054-28.12499973l3.51562446-28.12500054c0-10.546875 3.51562527-21.09375 3.51562527-24.60937446 0-7.03124973 3.51562527-10.546875 7.03124973-14.06250027 7.03124973-7.03124973 14.06250027-10.546875 24.60937527-10.546875s17.57812473 3.51562527 21.09375 10.546875c3.51562527 3.51562527 7.03124973 10.546875 7.03124973 14.06250027v14.06249946c0 3.51562527-3.51562527 10.546875-3.51562446 17.57812554l-7.03125054 31.640625c-3.51562527 14.06250027-3.51562527 24.60937527-7.03124973 28.12499973 0 3.51562527-3.51562527 10.546875-7.03124973 17.57812473s-7.03124973 10.546875-7.03125054 14.06250027c-3.51562527 3.51562527-7.03124973 7.03124973-10.546875 14.06250027l17.57812554 10.546875c10.546875 0 21.09375 10.546875 24.60937446 24.60937446z m-56.24999946 14.06250027c0-3.51562527-3.51562527-10.546875-7.03125054-14.06250027-3.51562527-3.51562527-10.546875-7.03124973-17.57812473-10.546875s-17.57812473-3.51562527-35.15625027-3.51562446H434.65624973V471.89062527v10.546875s7.03124973 3.51562527 7.03125054 7.03124973H536.60937527c10.546875 0 21.09375 0 28.12499973-3.51562527 7.03124973 0 14.06250027-7.03124973 21.09375-10.546875 7.03124973-7.03124973 10.546875-14.06250027 10.546875-28.12499973-3.51562527-3.51562527-7.03124973-7.03124973-7.03124973-10.546875z"  horiz-adv-x="1024" />

    
    <glyph glyph-name="zujian" unicode="&#58927;" d="M813.323 620.3679999999999H656.79a156.854 156.854 0 0 1 5.695 41.862c0 86.414-70.302 156.716-156.715 156.716-86.415 0-156.718-70.303-156.718-156.716a156.86 156.86 0 0 1 5.695-41.862H210.674c-20.926 0-37.89-16.963-37.89-37.889v-211.95c0-0.868 0.04-1.725 0.098-2.579 0.01-0.161 0.023-0.322 0.036-0.484 0.087-1.081 0.216-2.152 0.392-3.206 0.02-0.121 0.043-0.243 0.065-0.365 0.194-1.095 0.43-2.175 0.715-3.236 0.028-0.104 0.06-0.207 0.088-0.312 0.3-1.078 0.643-2.136 1.034-3.174 0.044-0.116 0.092-0.231 0.136-0.347 0.4-1.028 0.838-2.036 1.322-3.02 0.068-0.137 0.14-0.27 0.208-0.405a37.748 37.748 0 0 1 1.6-2.846c0.085-0.138 0.176-0.276 0.265-0.413 0.596-0.93 1.228-1.835 1.9-2.707l0.281-0.358a38.03 38.03 0 0 1 2.242-2.592c0.048-0.05 0.088-0.106 0.137-0.158 0.045-0.047 0.095-0.086 0.14-0.133a37.845 37.845 0 0 1 2.493-2.352c0.113-0.098 0.225-0.197 0.339-0.293a37.095 37.095 0 0 1 2.629-2.022c0.13-0.093 0.259-0.19 0.39-0.278a38.16 38.16 0 0 1 2.796-1.736c0.121-0.068 0.242-0.142 0.365-0.209a37.59 37.59 0 0 1 3.023-1.484l0.264-0.12a38.15 38.15 0 0 1 3.24-1.213l0.173-0.059c1.093-0.348 2.209-0.645 3.342-0.894l0.206-0.047c1.085-0.234 2.188-0.413 3.304-0.551 0.12-0.015 0.239-0.032 0.36-0.045 1.052-0.12 2.116-0.192 3.191-0.222 0.18-0.005 0.36-0.012 0.54-0.014 0.192-0.003 0.381-0.016 0.574-0.016 0.86 0 1.714 0.04 2.561 0.096 0.173 0.013 0.346 0.025 0.52 0.04a37.998 37.998 0 0 1 3.173 0.387c0.133 0.022 0.264 0.048 0.397 0.07a38.41 38.41 0 0 1 3.207 0.71c0.115 0.03 0.225 0.065 0.338 0.096 1.071 0.3 2.122 0.64 3.152 1.026 0.12 0.045 0.24 0.097 0.362 0.144 1.025 0.399 2.03 0.835 3.008 1.318 0.139 0.067 0.275 0.142 0.412 0.21a38.035 38.035 0 0 1 2.843 1.599c0.138 0.086 0.274 0.176 0.41 0.264a37.693 37.693 0 0 1 5.667 4.433c0.05 0.046 0.101 0.084 0.15 0.13 15.146 14.501 35.014 22.487 55.94 22.487 44.63 0 80.938-36.308 80.938-80.936 0-44.63-36.308-80.939-80.938-80.939-20.925 0-40.794 7.987-55.94 22.488-0.055 0.053-0.115 0.095-0.17 0.148a38.678 38.678 0 0 1-2.944 2.517c-0.87 0.67-1.769 1.299-2.694 1.892-0.143 0.091-0.282 0.184-0.426 0.273a38.261 38.261 0 0 1-2.837 1.596c-0.138 0.068-0.272 0.143-0.412 0.21a37.763 37.763 0 0 1-3.015 1.322c-0.118 0.045-0.233 0.092-0.35 0.136a36.988 36.988 0 0 1-3.17 1.033l-0.315 0.09a37.596 37.596 0 0 1-3.24 0.716l-0.36 0.064a37.633 37.633 0 0 1-3.689 0.429 38.53 38.53 0 0 1-2.581 0.097c-0.199 0-0.395-0.011-0.594-0.015-0.167-0.001-0.332-0.008-0.497-0.013a38.18 38.18 0 0 1-3.23-0.225c-0.107-0.012-0.214-0.026-0.32-0.04-1.13-0.138-2.247-0.323-3.343-0.558-0.056-0.01-0.11-0.025-0.165-0.037-1.145-0.25-2.273-0.55-3.377-0.904-0.05-0.015-0.1-0.033-0.148-0.05-1.112-0.359-2.2-0.765-3.265-1.22-0.08-0.036-0.161-0.076-0.241-0.111-1.038-0.454-2.054-0.95-3.04-1.491-0.12-0.067-0.238-0.14-0.36-0.208a37.73 37.73 0 0 1-2.796-1.735c-0.134-0.091-0.264-0.19-0.397-0.283a37.403 37.403 0 0 1-2.619-2.013c-0.118-0.1-0.234-0.201-0.35-0.303a37.99 37.99 0 0 1-2.478-2.34c-0.048-0.05-0.102-0.09-0.15-0.141-0.052-0.054-0.094-0.114-0.145-0.168a38.373 38.373 0 0 1-2.228-2.576c-0.097-0.122-0.195-0.244-0.291-0.369a38.314 38.314 0 0 1-1.892-2.694c-0.09-0.144-0.185-0.283-0.274-0.428-0.57-0.918-1.1-1.865-1.593-2.835-0.07-0.138-0.143-0.274-0.212-0.413-0.484-0.98-0.92-1.987-1.32-3.013-0.046-0.117-0.095-0.234-0.138-0.352a37.48 37.48 0 0 1-1.032-3.17l-0.09-0.315a37.563 37.563 0 0 1-0.715-3.235c-0.021-0.123-0.045-0.245-0.066-0.367a38.328 38.328 0 0 1-0.391-3.205 38.328 38.328 0 0 1-0.133-3.063v-211.952c0-20.926 16.963-37.89 37.889-37.89h602.648c20.926 0 37.889 16.964 37.889 37.89V582.479c0.007 20.926-16.956 37.89-37.882 37.89z m-37.889-595.536H248.563V134.337c14.215-4.175 29.09-6.34 44.254-6.34 86.414 0 156.715 70.302 156.715 156.716 0 86.413-70.302 156.714-156.715 156.714a156.903 156.903 0 0 1-44.254-6.34V544.5899999999999h169.12c0.534 0 1.066 0.018 1.594 0.04 0.08 0.004 0.162 0.002 0.243 0.007a37.803 37.803 0 0 1 3.343 0.315c0.108 0.015 0.214 0.024 0.322 0.04a37.288 37.288 0 0 1 3.267 0.63c0.115 0.027 0.227 0.05 0.34 0.078a37.428 37.428 0 0 1 3.17 0.937c0.127 0.043 0.25 0.083 0.377 0.128a37.587 37.587 0 0 1 3.039 1.232c0.134 0.063 0.271 0.12 0.405 0.183a38.16 38.16 0 0 1 2.93 1.542c0.12 0.07 0.24 0.137 0.36 0.208a38.162 38.162 0 0 1 2.89 1.913c0.075 0.054 0.15 0.105 0.225 0.16a37.937 37.937 0 0 1 2.916 2.386c0.005 0.005 0.01 0.008 0.016 0.012l0.005 0.005a38.086 38.086 0 0 1 2.67 2.676c0.067 0.075 0.13 0.154 0.197 0.23a38.035 38.035 0 0 1 2.156 2.649c0.103 0.137 0.197 0.277 0.296 0.415a38.46 38.46 0 0 1 1.771 2.684c0.09 0.152 0.175 0.304 0.262 0.457a37.161 37.161 0 0 1 1.496 2.85c0.06 0.123 0.113 0.248 0.17 0.372 0.46 1.007 0.88 2.035 1.254 3.086 0.028 0.08 0.054 0.16 0.08 0.24a37.71 37.71 0 0 1 0.982 3.306c0.012 0.047 0.02 0.094 0.032 0.14 0.276 1.132 0.503 2.281 0.673 3.45l0.015 0.111c0.165 1.16 0.285 2.334 0.343 3.526l0.001 0.065c0.029 0.603 0.045 1.209 0.045 1.817 0 0.538-0.018 1.07-0.04 1.603-0.004 0.077-0.002 0.152-0.007 0.23a38.114 38.114 0 0 1-0.316 3.359c-0.013 0.102-0.024 0.202-0.039 0.304a37.851 37.851 0 0 1-0.632 3.289c-0.026 0.106-0.047 0.211-0.074 0.318a37.391 37.391 0 0 1-0.941 3.19c-0.041 0.12-0.08 0.238-0.122 0.357a36.944 36.944 0 0 1-1.241 3.06c-0.059 0.128-0.113 0.256-0.173 0.383a37.714 37.714 0 0 1-1.552 2.947c-0.066 0.116-0.13 0.232-0.2 0.347a37.756 37.756 0 0 1-1.92 2.902c-0.052 0.072-0.1 0.144-0.151 0.214a38.324 38.324 0 0 1-2.402 2.935c-13.499 14.9-20.933 34.187-20.933 54.31 0 44.631 36.309 80.94 80.94 80.94 44.629 0 80.938-36.309 80.938-80.94 0-20.123-7.434-39.41-20.933-54.31l-0.01-0.013a38.325 38.325 0 0 1-2.392-2.922c-0.053-0.07-0.1-0.143-0.151-0.214a37.756 37.756 0 0 1-1.92-2.902c-0.07-0.116-0.134-0.231-0.2-0.347a38.423 38.423 0 0 1-1.552-2.947c-0.06-0.127-0.115-0.256-0.173-0.384a36.923 36.923 0 0 1-1.24-3.06c-0.043-0.118-0.082-0.237-0.122-0.357a37.507 37.507 0 0 1-0.942-3.19c-0.027-0.106-0.05-0.211-0.074-0.317a37.851 37.851 0 0 1-0.632-3.29c-0.015-0.1-0.025-0.2-0.039-0.303a38.546 38.546 0 0 1-0.316-3.359c-0.005-0.078-0.003-0.153-0.007-0.23a39.64 39.64 0 0 1-0.04-1.603 39.6 39.6 0 0 1 0.047-1.882c0.06-1.192 0.178-2.366 0.343-3.526 0.005-0.037 0.009-0.073 0.016-0.11 0.17-1.169 0.397-2.319 0.672-3.45 0.01-0.047 0.02-0.094 0.032-0.141 0.277-1.123 0.607-2.225 0.982-3.305l0.08-0.24c0.374-1.052 0.794-2.08 1.254-3.086 0.057-0.125 0.11-0.25 0.17-0.374 0.457-0.974 0.96-1.922 1.497-2.85 0.089-0.152 0.173-0.304 0.263-0.456a38.446 38.446 0 0 1 1.77-2.684c0.1-0.138 0.192-0.278 0.296-0.415a37.455 37.455 0 0 1 2.156-2.65c0.066-0.075 0.129-0.153 0.196-0.229a38.293 38.293 0 0 1 2.675-2.681l0.018-0.014a38.428 38.428 0 0 1 2.831-2.324 38.039 38.039 0 0 1 2.829-1.913c0.036-0.022 0.072-0.048 0.11-0.071a37.789 37.789 0 0 1 2.879-1.574c0.084-0.042 0.166-0.087 0.25-0.128 0.942-0.458 1.91-0.871 2.894-1.25 0.115-0.044 0.227-0.092 0.344-0.135 0.956-0.358 1.932-0.673 2.923-0.955 0.136-0.038 0.27-0.078 0.406-0.115a37.179 37.179 0 0 1 3.401-0.754c0.988-0.173 1.987-0.311 3-0.406 0.138-0.013 0.276-0.02 0.413-0.031 1.027-0.084 2.065-0.138 3.115-0.138l0.015-0.001h181.597v-519.761z"  horiz-adv-x="1024" />

    
    <glyph glyph-name="zhankai" unicode="&#59270;" d="M96 736h832c19.2 0 32-12.8 32-32s-12.8-32-32-32h-832c-19.2 0-32 12.8-32 32s12.8 32 32 32z m0-320h832c19.2 0 32-12.8 32-32s-12.8-32-32-32h-832c-19.2 0-32 12.8-32 32s12.8 32 32 32z m0-320h832c19.2 0 32-12.8 32-32s-12.8-32-32-32h-832c-19.2 0-32 12.8-32 32s12.8 32 32 32z"  horiz-adv-x="1024" />

    
    <glyph glyph-name="shuju" unicode="&#58906;" d="M921.8375 14.381250000000023H102.1625a24.13125 24.13125 0 0 0-24.13125 24.13125v16.0875c0 13.33125 10.8 24.13125 24.13125 24.13125h819.61875c13.33125 0 24.13125-10.8 24.13125-24.13125v-16.0875a24.075 24.075 0 0 0-24.075-24.13125z m0 144.61875H905.75a24.13125 24.13125 0 0 0-24.13125 24.13125V456.3375c0 13.33125 10.8 24.13125 24.13125 24.13125h16.0875c13.33125 0 24.13125-10.8 24.13125-24.13125v-273.20625a24.1875 24.1875 0 0 0-24.13125-24.13125z m-160.70625 0h-16.0875a24.13125 24.13125 0 0 0-24.13125 24.13125V617.04375c0 13.33125 10.8 24.13125 24.13125 24.13125h16.0875c13.33125 0 24.13125-10.8 24.13125-24.13125v-433.9125a24.1875 24.1875 0 0 0-24.13125-24.13125z m-160.7625 0h-16.03125a24.13125 24.13125 0 0 0-24.13125 24.13125V392.04375c0 13.33125 10.8 24.13125 24.13125 24.13125h16.0875a24.1875 24.1875 0 0 0 24.075-24.13125v-208.9125a24.13125 24.13125 0 0 0-24.13125-24.13125z m-160.70625 0h-16.03125A24.13125 24.13125 0 0 0 399.5 183.13125000000002V568.8375c0 13.33125 10.8 24.13125 24.13125 24.13125h16.0875c13.33125 0 24.13125-10.8 24.13125-24.13125v-385.70625a24.1875 24.1875 0 0 0-24.1875-24.13125z m-160.70625 0h-16.0875a24.13125 24.13125 0 0 0-24.13125 24.13125V713.45625c0 13.33125 10.8 24.13125 24.13125 24.13125h16.0875c13.33125 0 24.13125-10.8 24.13125-24.13125v-530.38125a24.13125 24.13125 0 0 0-24.13125-24.075zM118.25 159H102.1625a24.13125 24.13125 0 0 0-24.13125 24.13125V456.3375c0 13.33125 10.8 24.13125 24.13125 24.13125H118.25c13.33125 0 24.13125-10.8 24.13125-24.13125v-273.20625A24.13125 24.13125 0 0 0 118.25 159z"  horiz-adv-x="1024" />

    
    <glyph glyph-name="tuangou" unicode="&#59092;" d="M781.312 776.576c159.146667-159.146667 159.146667-417.28 0-576.512l-288.256-288.256-288.298667 288.256c-159.232 159.232-159.232 417.365333 0 576.512a407.68 407.68 0 0 0 576.554667 0z m-142.72-288.256a145.664 145.664 0 0 1-291.2 0 145.664 145.664 0 0 1 291.2 0z"  horiz-adv-x="1024" />

    
    <glyph glyph-name="wicon-app-ruan-jian-kai-fa-copy" unicode="&#58888;" d="M32 109.91999999999996c0-62.4 51.84-109.92 120-109.92h720c68.16 0 120 47.52 120 109.92v402.24H32v-402.24z m672 237.6c-12 11.04-15.84 25.44-3.84 36.48s27.84 14.4 39.84 3.84l120-91.2c7.2-3.36 12-10.56 12-18.24-0.96-7.68-3.84-15.36-8.16-22.08l-120-106.08c-11.52-9.6-28.32-9.6-39.84 0-12 11.04-12 29.28 0 36.48l96 84-96 76.8z m-279.84-160.8l120 197.28c8.16 14.4 24 18.24 39.84 11.04s20.16-22.08 12-36.48l-120-197.28c-5.28-8.16-14.4-13.44-24-14.4-3.84 0-12 0-15.84 3.84-12 6.72-20.16 21.12-12 36z m-260.16 113.28l120 91.2c12 10.08 29.76 8.64 39.84-3.36 9.12-8.64 9.6-23.52 0.96-32.64-1.44-1.44-2.88-2.88-4.8-3.84L224 278.4l96-84c10.08-7.68 12-22.08 4.32-32.16-1.44-1.44-2.4-2.88-4.32-4.32-11.52-9.6-28.32-9.6-39.84 0l-120 106.08c-5.76 5.76-8.64 13.92-8.16 22.08 0 2.88 3.84 6.72 12 13.92zM872 768H152C83.84 768 32 720.48 32 658.08v-109.92h960V658.08c0 62.4-51.84 109.92-120 109.92zM232.16 621.6H152V695.04h80.16v-73.44z m159.84 0H311.84V695.04H392v-73.44z m159.84 0H472.16V695.04h80.16v-73.44z"  horiz-adv-x="1024" />

    
    <glyph glyph-name="jisuanji" unicode="&#59032;" d="M802.86303711 753.30541992H222.78491211c-43.58825684 0-79.1015625-35.51330567-79.1015625-79.1015625v-580.078125c0-43.58825684 35.51330567-79.1015625 79.1015625-79.1015625h580.078125c43.58825684 0 79.1015625 35.51330567 79.1015625 79.1015625v580.078125c0 43.6706543-35.51330567 79.1015625-79.1015625 79.1015625z m26.3671875-659.1796875c0-14.58435059-11.86523438-26.3671875-26.3671875-26.3671875H222.78491211c-14.50195313 0-26.3671875 11.78283692-26.3671875 26.3671875v580.078125c0 14.58435059 11.86523438 26.3671875 26.3671875 26.3671875h580.078125c14.50195313 0 26.3671875-11.78283692 26.3671875-26.3671875v-580.078125zM460.08959961 542.3679199200001h-52.734375v52.734375c0 14.58435059-11.78283692 26.3671875-26.3671875 26.3671875s-26.3671875-11.78283692-26.3671875-26.3671875v-52.734375h-52.734375c-14.58435059 0-26.3671875-11.78283692-26.3671875-26.3671875s11.78283692-26.3671875 26.3671875-26.3671875h52.734375v-52.734375c0-14.58435059 11.78283692-26.3671875 26.3671875-26.3671875s26.3671875 11.78283692 26.3671875 26.3671875v52.734375h52.734375c14.58435059 0 26.3671875 11.78283692 26.3671875 26.3671875s-11.78283692 26.3671875-26.3671875 26.3671875zM723.76147461 542.3679199200001H565.55834961c-14.58435059 0-26.3671875-11.78283692-26.3671875-26.3671875s11.78283692-26.3671875 26.3671875-26.3671875h158.203125c14.58435059 0 26.3671875 11.78283692 26.3671875 26.3671875s-11.78283692 26.3671875-26.3671875 26.3671875zM723.76147461 278.69604491999996H565.55834961c-14.58435059 0-26.3671875-11.78283692-26.3671875-26.3671875s11.78283692-26.3671875 26.3671875-26.3671875h158.203125c14.58435059 0 26.3671875 11.78283692 26.3671875 26.3671875s-11.78283692 26.3671875-26.3671875 26.3671875zM465.52783203 336.86865234000004c-10.29968262 10.29968262-27.02636719 10.29968262-37.24365234 0L380.98803711 289.65490722000004l-47.29614258 47.29614259c-10.29968262 10.29968262-27.02636719 10.29968262-37.32604981 0s-10.29968262-27.02636719 0-37.24365234l47.29614258-47.29614258-47.29614258-47.29614258c-10.29968262-10.29968262-10.29968262-27.02636719 0-37.24365234 5.19104004-5.10864258 11.86523438-7.74536133 18.62182617-7.74536133s13.51318359 2.55432129 18.62182618 7.74536133L380.98803711 215.08520508000004l47.29614258-47.29614258c5.10864258-5.10864258 11.86523438-7.74536133 18.62182617-7.74536133s13.51318359 2.55432129 18.62182617 7.74536133c10.29968262 10.29968262 10.29968262 27.02636719 0 37.24365234l-47.29614258 47.29614258 47.29614258 47.29614258c10.29968262 10.29968262 10.29968262 26.94396973 0 37.24365234zM644.65991211 331.43041991999996m-26.3671875 0a26.3671875 26.3671875 0 1 1 52.734375 0 26.3671875 26.3671875 0 1 1-52.734375 0ZM644.65991211 173.22729491999996m-26.3671875 0a26.3671875 26.3671875 0 1 1 52.734375 0 26.3671875 26.3671875 0 1 1-52.734375 0Z"  horiz-adv-x="1024" />

    
    <glyph glyph-name="loop" unicode="&#58891;" d="M569 279.9c-18.6 10.8-42-2.7-42-24.2v-46.3H351.1c-96.7 0-175.4 78.7-175.4 175.5 0 38.9 12.7 75.9 36.8 107 18.9 24.5 14.4 59.6-10 78.5-24.4 18.8-59.5 14.4-78.5-10-39.3-50.9-60.1-111.5-60.1-175.5 0-158.4 128.9-287.3 287.3-287.3H527v-46.3c0-21.5 23.3-35 42-24.2l177.1 102.3c18.6 10.8 18.6 37.7 0 48.4L569 279.9zM671.5 672.1H495.6v46.3c0 21.5-23.3 35-42 24.2L276.5 640.4c-18.6-10.8-18.6-37.7 0-48.4l177.1-102.3c18.6-10.8 42 2.7 42 24.2v46.3h175.9c96.7 0 175.5-78.7 175.5-175.4 0-39-12.7-76-36.8-107.1-18.9-24.5-14.4-59.6 10-78.5 10.2-7.9 22.2-11.7 34.2-11.7 16.7 0 33.3 7.5 44.3 21.7 39.3 50.9 60.1 111.6 60.1 175.6 0 158.5-128.9 287.3-287.3 287.3z"  horiz-adv-x="1024" />

    
    <glyph glyph-name="zhuanzhu" unicode="&#58946;" d="M440.84708408 481.26094693l-12.36691049-76.04018866a16.08884665 16.08884665 0 0 1 5.29374929-12.38173874 10.91372415 10.91372415 0 0 1 12.38173874-1.76458282l68.96702747 35.36580514 68.95219922-35.36580514a6.52450945 6.52450945 0 0 1 5.30857836-1.76458365 12.08517051 12.08517051 0 0 1 12.38173874 12.36691049 6.46519565 6.46519565 0 0 1-1.77941189 5.30857837l-12.36691049 72.49619394 54.86519065 53.05612225c3.54399473 3.52916647 5.30857754 7.07316119 3.54399471 12.36691049a21.3677677 21.3677677 0 0 1-8.89705783 8.89705784l-76.04018866 10.60232766L527.56374246 633.326496a11.86274433 11.86274433 0 0 1-10.60232767 7.0731612c-5.30857754 0-8.89705783-1.76458282-10.61715591-7.0731612L472.698551 564.35946853 396.64353408 553.78679819a8.3484061 8.3484061 0 0 1-8.89705782-8.89705866c-1.76458282-3.52916647 0-8.89705783 3.52916647-12.3669105zM943.64948615 619.95125235a32.75600153 32.75600153 0 0 1-32.85980091 32.62254565h-88.79263851V773.2475607700001a32.50391803 32.50391803 0 0 1-33.06739884 32.62254565H244.59281409A32.62254565 32.62254565 0 0 1 211.71818494 773.2475607700001v-120.68859102H122.74760498a32.71151678 32.71151678 0 0 1-32.62254565-32.62254565v-181.27755587a190.39703989 190.39703989 0 0 1 55.20624444-134.22694785h0.25208349a192.11713797 192.11713797 0 0 1 114.86101823-55.4434997c49.40832816-76.42572802 132.1213104-129.09631091 223.68686572-138.89790334v-82.25330081h-142.82743744a32.85980091 32.85980091 0 1 1 0-65.70477274h351.16687793a32.85980091 32.85980091 0 1 1 0 65.70477274H549.80638663v82.25330081c91.34312832 9.80159243 174.29336499 62.47217532 223.68686572 138.89790334a192.4878491 192.4878491 0 0 1 112.91849396 53.827201l1.85355396 1.6162987a190.61946689 190.61946689 0 0 1 55.45832794 134.22694785zM191.37357864 335.57162318999997l-1.58664221 1.58664222c-25.20833066 26.21666382-40.92646619 60.58896488-40.92646619 99.18736743V603.5213519h62.99117056v-201.31076487a351.43378884 351.43378884 0 0 1 14.16115063-91.817638 144.8885885 144.8885885 0 0 0-34.63921279 25.17867416z m577.38940439 72.45170838v-2.5208333a251.32705856 251.32705856 0 0 0-28.44092807-110.56077302l-0.50416699-1.48284283c-43.62524093-81.15599735-129.92670263-134.09349197-223.07889935-134.09349198s-179.42400192 52.93749463-222.57473319 134.09349198l-0.97867667 1.48284283a250.30389716 250.30389716 0 0 0-27.93676189 113.08160632V754.87513605h503.51416616z m117.82670471 28.32230127c0-38.55391782-15.76262109-72.97070362-40.94129526-99.18736743l-1.57181396-1.58664222a144.96273056 144.96273056 0 0 0-34.65404022-25.20833064 352.14555377 352.14555377 0 0 1 14.17597888 91.81763799V603.5213519h62.99117056z"  horiz-adv-x="1035" />

    
    <glyph glyph-name="jishi" unicode="&#59330;" d="M235.86386109 382.32219441999996h76.70379638v-26.84674073h-76.70379638v26.84674073z m299.14727782 19.17553711C527.34075927 405.33333333 523.50598145 405.33333333 515.8356018 405.33333333c-3.8356018 0-7.67120362 0-15.34158325-3.8356018-23.01113891 57.52908325-53.69265747 107.38696289-88.20977783 153.40924071l-23.01113892-11.50515747c23.01113891-53.69348145 53.69265747-107.38696289 88.20977784-153.40924072-3.83477783-7.67120362-7.67037964-15.34075927-7.67037964-26.84674072 0-26.84674073 19.17636109-49.85870362 46.0231018-49.85870362s46.02227783 23.01196289 46.02227784 49.85870362v11.50598145c30.68151855 26.84591675 53.69348145 57.52825928 76.70462036 92.04537964L615.55136109 489.70833333c-30.68234253-30.68151855-57.52825928-57.52825928-80.54022218-88.2106018z m-26.84674071-226.27825929h26.84674071v-80.53939818h-26.84674071v80.53939818z m138.06848144 57.52825929l57.52825927-57.52825929L722.9375 194.39583332999996l-57.52825928 57.52825928-19.17636108-19.17636108zM385.4375 217.40697223999996L366.26113891 236.58333332999996l-53.69265746-57.52825928 19.17553711-19.17636108 53.69348144 57.52825927z m-11.50598145 306.81848145l-53.69265746 57.52825928L301.0625 562.5773518799999l53.69348145-57.52825928 19.17553711 19.17636109zM707.59674072 574.08333333l-19.17636108 19.17636109-53.69348144-57.52825929 19.17636107-15.34158324 53.69348145 53.69348144z m0-172.5856018h76.70379639v-26.84591675h-76.70379639v26.84591675zM512 44.82219441999996c-176.42120362 0-322.15924073 149.57363891-322.15924073 329.82879638 0 161.08044434 115.05734253 299.1481018 264.63098145 325.99484253l3.83477784-53.69348144L600.2106018 746.66893513 446.80136109 827.20833333l3.83477782-61.36386109C270.38098144 735.16295369 128.4768982 570.24773153 128.4768982 374.65181478 128.4768982 159.87871297000004 301.0625-16.54166667000004 512-16.54166667000004c203.26629638 0 372.01629638 164.9143982 383.5231018 372.01629638l-61.36386108 3.83560182C826.48803711 182.88985188000004 684.5856018 44.82219441999996 512 44.82219441999996zM834.15924073 374.65181478h61.36386107c0 34.51629638-3.8356018 72.86901855-15.34158325 103.5505371l-57.52825928-15.34075927c7.67120362-26.84674073 11.50598145-57.52825928 11.50598145-88.20977784z m-15.34075929 103.5505371l57.52825928 19.17636109c-7.67120362 26.84674073-19.17636109 49.85870362-30.68234252 72.86901856l-53.69265748-30.68151856c11.50515747-15.34075927 19.17636109-38.3518982 26.84674072-61.36386109z m-38.35272217 80.54022217l49.85870362 34.51629639c-11.50598145 19.17636109-26.84756469 42.1875-46.0231018 57.52908325l-42.1875-42.1875c15.34075927-15.34075927 26.84674073-34.51712036 38.35189819-49.85870361z m-11.50515747 107.38613892c-23.01196289 23.01113891-49.85870362 42.1875-76.70462036 57.52825927l-26.84674071-53.69265747c23.01113891-11.50598145 46.02227783-30.68234253 65.19863891-46.0231018l38.35272216 42.1875z"  horiz-adv-x="1024" />

    
    <glyph glyph-name="ladiyemobanku" unicode="&#59369;" d="M830.24 509.76h-144c-47.04 0-84.96-41.76-84.96-92.64v-52.8c0-51.36 37.92-92.64 84.96-92.64h144c47.04 0 84.96 41.76 84.96 92.64v52.8c0 50.88-37.92 92.64-84.96 92.64z m17.76-92.64v-52.8c0-11.04-8.16-19.68-17.76-19.68h-144c-10.08 0-17.76 8.64-17.76 19.68v52.8c0 11.04 8.16 19.68 17.76 19.68h144c10.08-0.48 17.76-9.12 17.76-19.68zM195.68 271.67999999999995h254.88c50.88 0 92.64 44.64 92.64 98.88v331.2c0 54.72-41.76 98.88-92.64 98.88H195.68c-50.88 0-92.64-44.64-92.64-98.88v-331.2c0-54.72 41.28-98.88 92.64-98.88zM176 370.55999999999995v331.2c0 11.52 8.64 21.12 19.68 21.12h254.88c11.04 0 19.68-9.6 19.68-21.12v-331.2c0-11.52-8.64-21.12-19.68-21.12H195.68c-11.04 0.48-19.68 9.6-19.68 21.12zM830.24 805.44h-144c-47.04 0-84.96-41.76-84.96-92.64v-52.8c0-50.88 37.92-92.64 84.96-92.64h144c47.04 0 84.96 41.76 84.96 92.64v52.8c0 50.88-37.92 92.64-84.96 92.64z m17.76-93.12v-52.8c0-11.04-8.16-19.68-17.76-19.68h-144c-10.08 0-17.76 8.64-17.76 19.68v52.8c0 11.04 8.16 19.68 17.76 19.68h144c10.08 0 17.76-8.64 17.76-19.68zM818.72 203.03999999999996H195.68c-50.88 0-92.64-41.76-92.64-92.64v-52.8c0-50.88 41.76-92.64 92.64-92.64h623.04c50.88 0 92.64 41.76 92.64 92.64v52.8c0 50.88-41.76 92.64-92.64 92.64z m19.68-93.12v-52.8c0-11.04-8.64-19.68-19.68-19.68H195.68c-11.04 0-19.68 8.64-19.68 19.68v52.8c0 11.04 8.64 19.68 19.68 19.68h623.04c10.56 0 19.68-8.64 19.68-19.68z"  horiz-adv-x="1024" />

    
    <glyph glyph-name="liaotian" unicode="&#58930;" d="M810.7 477.2c0 176.7-143.3 320-320 320H320C143.3 797.2 0 654 0 477.2c0-114.6 60.5-214.9 151-271.4l19.6-176.6 142.6 128.3c2.3 0 4.5-0.3 6.7-0.3h170.7c176.8 0 320.1 143.3 320.1 320z m-181.4 42.7c29.4 0 53.3-23.9 53.3-53.3s-23.9-53.3-53.3-53.3c-29.5 0-53.3 23.9-53.3 53.3s23.9 53.3 53.3 53.3zM202.7 413.2c-29.4 0-53.3 23.9-53.3 53.3s23.9 53.3 53.3 53.3c29.5 0 53.3-23.9 53.3-53.3s-23.9-53.3-53.3-53.3z m213.3 0c-29.5 0-53.3 23.9-53.3 53.3s23.9 53.3 53.3 53.3 53.3-23.9 53.3-53.3-23.8-53.3-53.3-53.3z m608-85.3c0 112.7-67.3 209.5-163.9 252.9 9.2-33 14.5-67.6 14.5-103.6 0-212.1-171.9-384-384-384h-19.3c42.7-26.9 93.1-42.7 147.3-42.7h93.1l179.4-108.1-11.4 142.1c86 47.2 144.3 138.5 144.3 243.4z"  horiz-adv-x="1024" />

    
    <glyph glyph-name="ziyuan" unicode="&#58894;" d="M538.944771 114.53995199999997C538.944771-19.431325000000015 647.525783-128 781.460048-128S1024-19.431325000000015 1024 114.53995199999997s-108.568675 242.515277-242.527614 242.515277H538.944771z m0 0M485.042892 653.472386C485.042892 787.431325 376.46188 896 242.527614 896S0 787.431325 0 653.472386s108.568675-242.515277 242.527614-242.515278h242.515278z m0 0M538.944771 653.472386C538.944771 787.431325 647.525783 896 781.460048 896S1024 787.431325 1024 653.472386s-108.568675-242.515277-242.527614-242.515278H538.944771z m0 0M488.188916 114.53995199999997C488.188916-19.431325000000015 379.607904-128 245.673639-128S3.146024-19.431325000000015 3.146024 114.53995199999997s108.568675 242.527614 242.527615 242.527614H488.188916z m0 0"  horiz-adv-x="1024" />

    
    <glyph glyph-name="xiaochengxu" unicode="&#59114;" d="M512 834a450 450 0 1 1 450-450A450 450 0 0 1 512 834z m161.55-466.2a130.05 130.05 0 0 0-36-9.45 25.2 25.2 0 0 0-27.45 12.15 26.55 26.55 0 0 0 7.2 33.75 109.35 109.35 0 0 0 26.1 18c27.45 15.3 45 36.45 34.2 69.3A63.45 63.45 0 0 1 602 530.7 58.05 58.05 0 0 1 545.3 474v-90a738 738 0 0 0 0-90 132.3 132.3 0 0 0-190.8-108.45 116.55 116.55 0 0 0 0 216.9c21.15 9.9 45 22.05 61.2-6.3s-12.15-36.9-30.6-47.7-45-30.6-39.6-63a54.45 54.45 0 0 1 47.25-45A73.35 73.35 0 0 1 467 264.29999999999995a82.8 82.8 0 0 1 13.05 56.25V486.6A124.65 124.65 0 0 0 602 595.95a135 135 0 0 0 135-90 117.45 117.45 0 0 0-63.45-138.15z"  horiz-adv-x="1025" />

    
    <glyph glyph-name="dingbu" unicode="&#58915;" d="M650.752-89.6H373.248c-42.496 0-76.8 34.304-76.8 76.8v265.728c0 0.512-0.512 1.024-1.024 1.024H151.04c-36.864 0-50.176 22.016-54.272 31.232-4.096 9.216-10.752 34.304 14.336 60.928l347.136 372.736c14.336 15.36 33.792 24.064 54.272 24.064s39.936-8.704 54.272-24.064l347.136-372.736c25.088-27.136 18.432-51.712 14.336-60.928-4.096-9.216-17.408-31.232-54.272-31.232h-144.384c-0.512 0-1.024-0.512-1.024-1.024v-265.728c-1.024-41.984-35.328-76.8-77.824-76.8z m-482.816 398.336h127.488c42.496 0 55.296-12.8 55.296-55.296v-287.232c0-0.512 322.56-0.512 322.56 0v287.232c0 42.496 12.8 55.296 55.296 55.296h127.488l-344.064 378.88-344.064-378.88z m718.336 488.96l-747.52-0.512c-20.992 0-37.888 9.216-37.888 30.208 0 20.992 16.896 30.208 37.888 30.208h746.496c20.992 0 37.888-9.216 37.888-30.208 0-20.992-15.872-29.696-36.864-29.696z"  horiz-adv-x="1024" />

    
    <glyph glyph-name="yingxiaozhongxin" unicode="&#58954;" d="M201.186 50.16h55.642c46.025 0 83.464 37.385 83.464 83.465V356.166c0 46.024-37.439 83.464-83.464 83.464h-55.642c-46.025 0-83.464-37.44-83.464-83.464v-222.542c0-46.079 37.438-83.463 83.464-83.463z m-27.822 306.006c0 15.324 12.498 27.822 27.822 27.822h55.642c15.324 0 27.822-12.498 27.822-27.822v-222.542c0-15.324-12.498-27.822-27.822-27.822h-55.642c-15.323 0-27.822 12.498-27.822 27.822V356.166zM467.878 50.16h55.642c46.024 0 83.464 37.385 83.464 83.465V523.093c0 46.024-37.44 83.464-83.464 83.464h-55.642c-46.026 0-83.464-37.44-83.464-83.464v-389.47c0-46.078 37.438-83.462 83.464-83.462z m-27.822 472.933c0 15.323 12.498 27.822 27.822 27.822h55.642c15.323 0 27.822-12.5 27.822-27.822v-389.47c0-15.323-12.5-27.821-27.822-27.821h-55.642c-15.324 0-27.822 12.498-27.822 27.822V523.093zM734.569 50.16h55.642c46.025 0 83.464 37.385 83.464 83.465V745.662c0 46.024-37.439 83.464-83.464 83.464h-55.642c-46.025 0-83.464-37.44-83.464-83.464v-612.038c0-46.079 37.44-83.463 83.464-83.463z m-27.822 695.502c0 15.323 12.498 27.822 27.822 27.822h55.642c15.324 0 27.822-12.499 27.822-27.822v-612.038c0-15.324-12.498-27.822-27.822-27.822h-55.642c-15.324 0-27.822 12.498-27.822 27.822V745.662zM929.316-5.482H94.682c-15.377 0-27.822-12.497-27.822-27.821 0-15.432 12.444-27.822 27.822-27.822h834.634c15.377 0 27.822 12.39 27.822 27.822 0 15.324-12.444 27.821-27.822 27.821z"  horiz-adv-x="1024" />

    
    <glyph glyph-name="zhanshi" unicode="&#58908;" d="M483.3 146.3h56v-186.9h-56zM417.9-12.1h186.9v-56H417.9zM960.9 117.5h-897v625h897v-625z m-841 56h785v513h-785v-513zM463.5 321.7l-95.9 95.9-84.2-84.2-39.6 39.6 123.8 123.8 95.8-95.7 144.4 145.4 173.1-173.1-39.6-39.6L608 467.2zM34.8 743.3h954.4v-56H34.8zM34.1 174.3h954.4v-56H34.1z"  horiz-adv-x="1024" />

    
    <glyph glyph-name="jiagejieti" unicode="&#59303;" d="M425.3 641.6h165.5v-452.5H425.3zM204.8 508.3h165.4v-319.2H204.8zM645.8 753h165.5v-564H645.8zM98 131.29999999999995h823.6v-107.7H98zM152.3 77h769.3v-53.4H152.3z"  horiz-adv-x="1024" />

    
    <glyph glyph-name="xiaochengxu2" unicode="&#58917;" d="M563.091 289.19h-80V512.11c0 89.175 72.549 161.724 161.723 161.724 89.177 0 161.727-72.549 161.727-161.724 0-89.176-72.55-161.725-161.727-161.725v80c45.064 0 81.727 36.662 81.727 81.726 0 45.063-36.662 81.724-81.727 81.724-45.063 0-81.723-36.661-81.723-81.724V289.19zM401.354 107.315c-89.176 0-161.726 72.549-161.726 161.724 0 89.176 72.55 161.726 161.726 161.726v-80c-45.063 0-81.726-36.662-81.726-81.726 0-45.063 36.662-81.724 81.726-81.724 45.063 0 81.725 36.661 81.725 81.724v222.92h80v-222.92c0-89.175-72.549-161.724-161.725-161.724zM401.482 430.665c-22.099 0-40.013-17.914-40.013-40.013 0-22.097 17.914-40.013 40.013-40.013 22.098 0 40.012 17.916 40.012 40.013 0.001 22.099-17.914 40.013-40.012 40.013zM644.808 430.394c-22.063 0-39.949-17.885-39.949-39.948 0-22.061 17.886-39.949 39.949-39.949s39.948 17.888 39.948 39.949c0 22.063-17.886 39.948-39.948 39.948zM511.115 814.23c58.235 0 114.687-11.388 167.785-33.846 51.327-21.71 97.44-52.806 137.06-92.424 39.618-39.619 70.715-85.732 92.424-137.06 22.459-53.098 33.847-109.549 33.847-167.785s-11.388-114.687-33.847-167.785c-21.709-51.327-52.806-97.44-92.424-137.06-39.619-39.618-85.732-70.715-137.06-92.424C625.802-36.612 569.351-48 511.115-48s-114.687 11.388-167.785 33.847c-51.327 21.709-97.441 52.806-137.06 92.424-39.619 39.619-70.715 85.732-92.424 137.06C91.388 268.429 80 324.88 80 383.115S91.388 497.802 113.846 550.9c21.709 51.328 52.806 97.441 92.424 137.06s85.732 70.714 137.06 92.424C396.429 802.842 452.88 814.23 511.115 814.23m0 80C228.834 894.23 0 665.396 0 383.115S228.834-128 511.115-128s511.115 228.834 511.115 511.115S793.396 894.23 511.115 894.23z"  horiz-adv-x="1024" />

    
    <glyph glyph-name="zizhirenzheng" unicode="&#58923;" d="M849.32053333 560.91093333H582.86506667v-35.19253333h266.45653333v35.19253333zM582.86613333 314.56640000000004h71.10186667v35.19146667h-71.10186667v-35.19146667z m266.4544 140.768H582.86506667v-35.19253333h266.45653333v35.19253333z m-17.95413333-105.57653333c-88.45333333 0-160.16106667-71.05706667-160.16106667-158.7232s71.70773333-158.7232 160.16106667-158.7232c88.4512 0 160.15893333 71.05813333 160.15893333 158.7232 0 87.6672-71.70666667 158.7232-160.15893333 158.7232z m-0.76586667-258.44053334c-8.4608-8.28266667-22.17386667-8.28266667-30.6336 0l-68.90453333 67.488a20.93653333 20.93653333 0 0 0 0 29.9968c8.46186667 8.28053333 22.17386667 8.28053333 30.61546667 0l53.59466666-52.48746666 103.376 101.22346666c8.43946667 8.2816 22.176 8.2816 30.61546667 0a20.88213333 20.88213333 0 0 0 0-29.98506666L830.59946667 91.31733333z m-717.44213333 11.37706667c-25.38453333 0-45.96586667 20.5824-45.96586667 45.96586667V656.43306667c0 25.38453333 20.58133333 45.96586667 45.96586667 45.96586666h778.5376c25.3824 0 45.96586667-20.58133333 45.96586667-45.96586666v-302.68693334a196.032 196.032 0 0 0 35.90826666-29.76853333V668.64213333c0 38.0768-30.8608 68.94933333-68.94933333 68.94933334H100.94933333c-38.08853333 0-68.94933333-30.87253333-68.94933333-68.94933334v-532.192c0-38.07573333 30.8608-68.9472 68.94933333-68.9472h579.82933334a194.1088 194.1088 0 0 0-23.3632 35.19253334h-544.256z m70.4288 476.25066667c-15.06133333 0-27.26933333-11.84853333-27.26933333-26.4832v-317.73866667c0-14.62186667 12.20906667-26.47253333 27.26933333-26.47253333h299.87413333c15.03786667 0 28.39146667 11.85066667 28.39146667 26.47253333v317.73866667c0 14.6336-13.3536 26.4832-28.39146667 26.4832H183.5872z m26.2816-334.99946667s-2.73813333 26.5184 11.53706667 44.3168c8.2144 7.58506667 12.704 27.78453333 56.3584 34.00213333 43.65333333 6.21653333 29.04213333 52.8992 30.47893333 52.2048 1.4144-0.69546667-0.38186667 10.0096-0.38186667 10.0096s-24.19413333 29.46773333-23.83573333 56.06506667c0.35946667 26.5856 0 22.17493333 0 22.17493333s-0.87573333 63.09013333 43.7664 63.09013334l34.56426667-11.64906667c40.10666667 0 42.93546667-51.44106667 42.93546666-51.44106667v-26.05653333s0.112-36.40426667-25.04853333-49.99466667c0 0-1.7728-10.70506667-0.35946667-10.0096 1.4368 0.68373333-23.76746667-48.176 19.90826667-54.39253333 43.67573333-6.2176 55.68426667-25.68853333 63.92-33.28426667 8.21546667-7.5968 12.2784-45.03466667 12.2784-45.03466666H209.87093333z"  horiz-adv-x="1025" />

    
    <glyph glyph-name="qiyewenhua" unicode="&#58933;" d="M141.9734375 669.778125v-534.9375s74.503125 52.1859375 178.875 52.1859375c103.6546875 0 178.1578125-52.1859375 178.1578125-52.1859375V662.521875S424.503125 723.3984375 320.8484375 723.3984375c-104.371875 0-178.875-53.6203125-178.875-53.6203125z m382.978125 0v-534.9375s74.165625 52.1859375 178.5375 52.1859375 178.5375-52.1859375 178.5375-52.1859375V662.521875s-74.1234375 60.8765625-178.5375 60.8765625-178.5375-53.6203125-178.5375-53.6203125zM90.125 607.0875h23.9203125v-510.6375H449.140625v-25.9453125h127.659375v25.9453125h333.1125V607.0875H933.875v-536.5828125h-321.9328125l1.434375-25.9453125H421.2546875v25.9453125H90.125V607.0875z"  horiz-adv-x="1024" />

    
    <glyph glyph-name="app" unicode="&#59335;" d="M512-66C263.474-66 62 135.47400000000005 62 384S263.474 834 512 834s450-201.474 450-450-201.474-450-450-450z m137.925 757.89h-275.85c-41.562 0-75.24-34.272-75.24-76.509v-510.12c0-42.246 33.678-76.527 75.24-76.527h275.85c41.562 0 75.24 34.281 75.24 76.527v510.12c0 42.237-33.678 76.518-75.24 76.518zM674.999 169.02599999999995c0-7.056-5.607-12.753-12.537-12.753H361.538c-6.93 0-12.546 5.697-12.546 12.753V602.6279999999999c0 7.047 5.616 12.753 12.546 12.753h300.924c6.93 0 12.537-5.706 12.537-12.753v-433.602zM486.917 666.393h50.157c6.93 0 12.546-5.706 12.546-12.753 0-7.056-5.616-12.753-12.546-12.753h-50.157c-6.93 0-12.537 5.697-12.537 12.753 0 7.047 5.616 12.753 12.537 12.753zM512 99.78899999999999m-23.688 0a23.688 23.688 0 1 1 47.376 0 23.688 23.688 0 1 1-47.376 0Z"  horiz-adv-x="1024" />

    
    <glyph glyph-name="yingxiao1" unicode="&#59311;" d="M730.70278174 800.08001377c-108.71394268 0-196.79773315-88.08379129-196.79773398-196.79773316v-196.79773398h196.79773398c108.71394268 0 196.79773315 88.08379129 196.79773315 196.79773398C927.50051489 711.99622248 839.41672361 800.08001377 730.70278174 800.08001377z m-1.7384958-353.26236238H577.25154551V598.53039185c0 83.79550113 67.91723933 151.71274045 151.71274044 151.71273962 83.79550113 0 151.71274045-67.91723933 151.71274044-151.71273962 0-83.79550113-67.91723933-151.71274045-151.71274044-151.71274046zM95.91998623 165.87671712999997C95.91998623 57.16277444000002 184.00377752-30.92101685 292.71771939-30.92101685c108.71394268 0 196.79773315 88.08379129 196.79773398 196.79773398V362.67445028H292.71771939C184.00377752 362.67445028 95.91998623 274.59065899999996 95.91998623 165.87671712999997z m349.08997248 151.71274044v-151.71274044c0-83.79550113-67.91723933-151.71274045-151.71274045-151.71274044S141.70037808 82.08121601000005 141.70037808 165.87671712999997c0 83.79550113 67.91723933 151.71274045 151.71274045 151.71274044h151.59684018zM730.12328287 362.67445028H533.32554972v-196.79773315c0-108.71394268 88.08379129-196.79773315 196.79773315-196.79773398C838.83722556-30.92101685 926.92101685 57.16277444000002 926.92101685 165.87671712999997c0 108.71394268-88.08379129 196.79773315-196.79773398 196.79773316zM727.22579016 14.279876130000048c-83.79550113 0-151.71274045 67.91723933-151.71274044 151.71274045V317.58945757000004h151.71274044c83.79550113 0 151.71274045-67.91723933 151.71274045-151.71274044 0-83.79550113-67.91723933-151.596841-151.71274045-151.596841zM293.29721826 800.08001377C184.58327639 800.08001377 96.49948511 711.99622248 96.49948511 603.28228061c0-108.71394268 88.08379129-196.79773315 196.79773315-196.79773398h196.79773399V603.28228061C490.09495225 711.99622248 402.01116095 800.08001377 293.29721826 800.08001377z m153.45123623-353.26236238H295.03571405c-83.79550113 0-151.71274045 67.91723933-151.71274044 151.71274046C143.32297361 682.32589297 211.24021292 750.24313147 295.03571405 750.24313147c83.79550113 0 151.71274045-67.91723933 151.71274044-151.71273962v-151.71274046z"  horiz-adv-x="1024" />

    
    <glyph glyph-name="dingdan" unicode="&#58893;" d="M808.80851094-66H215.19148906a76.59574453 76.59574453 0 0 0-76.59574453 76.59574453V623.36170253a76.59574453 76.59574453 0 0 0 76.59574453 76.59574454h95.74468154V719.1063832a76.59574453 76.59574453 0 0 0 76.59574453 76.59574453h34.92765968A123.93191513 123.93191513 0 0 0 512 834c35.23404287 0 66.88723447-14.78297901 89.5404252-38.29787227H636.46808487a76.59574453 76.59574453 0 0 0 76.59574453-76.59574453v-19.14893613h95.74468154a76.59574453 76.59574453 0 0 0 76.59574453-76.59574453v-612.76595801a76.59574453 76.59574453 0 0 0-76.59574453-76.59574453zM655.61702099 738.25531933h-83.29787226a66.8297874 66.8297874 0 0 1-60.31914873 38.29787228 66.8297874 66.8297874 0 0 1-60.31914873-38.29787227H368.38297901v-134.04255382h287.23404198V738.25531933z m172.34042609-134.04255381a38.29787227 38.29787227 0 0 1-38.29787228 38.29787315h-76.5957454v-19.14893614a76.59574453 76.59574453 0 0 0-76.59574453-76.5957454H387.53191513a76.59574453 76.59574453 0 0 0-76.59574453 76.59574541v19.14893613H234.34042519a38.29787227 38.29787227 0 0 1-38.29787227-38.29787315v-574.46808486a38.29787227 38.29787227 0 0 1 38.29787227-38.29787227h555.31914962a38.29787227 38.29787227 0 0 1 38.29787226 38.29787227V604.2127655300001z m-124.46808575-497.87234032h-382.97872266a28.7234042 28.7234042 0 0 0 0 57.44680927h382.97872266a28.7234042 28.7234042 0 0 0 0-57.44680927z m0 134.04255381h-382.97872266a28.7234042 28.7234042 0 0 0 0 57.44680839h382.97872266a28.7234042 28.7234042 0 0 0 0-57.44680839z m0 134.04255292h-382.97872266a28.7234042 28.7234042 0 0 0 0 57.4468084h382.97872266a28.7234042 28.7234042 0 0 0 0-57.4468084z"  horiz-adv-x="1024" />

    
    <glyph glyph-name="tuandui2" unicode="&#58948;" d="M111.12367981-2.770246489999977c-1.72315174 0-3.55325702 0.21390876-5.27640875 0.62984124-11.17077457 2.85211231-17.94454211 14.02288769-15.04489389 24.9916377 29.99471842 113.64480615 124.42341577 192.9335386 229.69014038 192.93353862 11.61047543 0 20.96302808-9.17429562 20.96302807-20.55897896s-9.35255264-20.55897894-20.96302807-20.55897893c-86.13380264 0-163.87764121-66.63248245-189.15448947-162.15448947a20.91549298 20.91549298 0 0 0-20.21434827-15.2825702zM311.24691928 174.25088067000002C189.24779913 174.25088067000002 90.125 274.47887283 90.125 397.79709475c0 114.14392629 84.45818682 209.63028158 196.55809826 222.17957803a20.51144385 20.51144385 0 0 0 22.66241227-18.1465675 20.51144385 20.51144385 0 0 0-18.13468332-22.68617899c-91.20818682-10.22007019-160.07482371-88.18970087-160.0748237-181.34683154 0-100.64392629 80.78609124-182.51144385 180.11091577-182.51144301a20.52332721 20.52332721 0 1 0 0-41.03477107z m698.05457721-177.02112716a20.36883774 20.36883774 0 0 0-19.81029913 15.40140875c-24.68265876 95.47447192-100.91725351 162.24955966-185.48239472 162.24955967-11.39656668 0-20.55897894 9.18617981-20.55897893 20.58274649 0 11.38468332 9.16241226 20.55897894 20.55897893 20.55897894 103.23459475 0 195.80941928-79.32438418 225.23371491-192.94542279 2.85211231-10.96875-3.80281668-22.15140876-14.75968333-25.00352106-1.79445438-0.62984125-3.48195438-0.84375-5.16945354-0.84375zM817.56822192 173.1100351a20.65404913 20.65404913 0 0 0-20.7610035 20.61839822c0 11.42033423 9.26936582 20.61839822 20.76100351 20.6183974 100.29929562 0 181.84595086 82.05765875 181.84595086 182.93926052 0 93.3710386-69.52024649 171.61399649-161.61971841 181.76276405a20.60651404 20.60651404 0 0 0-18.30105616 22.7337149 20.67781668 20.67781668 0 0 0 22.8763202 18.18221841C955.55105615 607.40360879 1040.82922543 511.59639121 1040.82922543 397.19102107c0-123.61531668-100.18045789-224.06910178-223.2610035-224.06910179z m-531.91901403-202.40492982a20.61839822 20.61839822 0 0 0-20.01232371 25.79973597c37.90933072 143.60387283 152.57614471 246.17297543 285.33010529 255.15713068 11.18265875 0.73679562 21.29577457-7.81954211 22.04445438-19.1329228a20.63028158 20.63028158 0 0 0-19.27552807-21.8899649c-115.08274649-7.72447193-214.74031668-98.02948947-248.06250001-224.48503509a20.72535178 20.72535178 0 0 0-20.01232453-15.44894385z m580.91593332 0.64172544a20.61839822 20.61839822 0 0 1 14.79533422 25.15801053c-37.90933072 143.60387283-152.56426053 246.17297543-285.33010611 255.15713068-11.17077457 0.73679562-21.29577457-7.81954211-22.04445355-19.1329228a20.63028158 20.63028158 0 0 1 19.27552808-21.8899649c115.09463068-7.72447193 214.74031668-98.02948947 248.07438336-224.48503509a20.72535178 20.72535178 0 0 1 25.229314-14.80721842zM534.95950702 348.21786932a167.44278158 167.44278158 0 0 0-34.28477106 10.54093332 165.29181317 165.29181317 0 0 0-55.97271139 39.53741227 10.26760528 10.26760528 0 0 0 0.54665524 14.54577456 10.42209475 10.42209475 0 0 0 14.6289614-0.59419033 144.82790525 144.82790525 0 0 1 48.9375-34.49867981 148.74955967 148.74955967 0 0 1 59.93001754-11.96698865 145.77860879 145.77860879 0 0 1 113.94190092 57.77904913 10.42209475 10.42209475 0 0 0 14.49823946 2.02024648 10.23195438 10.23195438 0 0 0 2.07966577-14.40316927 166.52772893 166.52772893 0 0 0-108.68926052-64.18441928c-7.13028158-0.98635529-14.40316928-1.61619736-21.46214823-1.65184827a152.87323947 152.87323947 0 0 0-34.15404913 2.87587985zM560.01056317 215.78477107000003c-162.68926053 0-295.03917278 132.36179562-295.03917196 295.03917278C264.97139121 673.5132043799999 397.32130264 805.875 560.01056317 805.875c162.68926053 0 295.05105615-132.36179562 295.05105615-295.05105615 0-162.67737717-132.36179562-295.03917278-295.05105615-295.03917278z m0 548.99603859c-139.96742981 0-253.83802807-113.97755264-253.83802808-253.95686581 0-139.96742981 113.87059826-253.95686582 253.95686665-253.95686663 140.0625 0 253.94498245 113.88248245 253.94498244 253.95686663 0 140.08626755-113.98943683 253.95686582-254.06382101 253.95686581z"  horiz-adv-x="1153" />

    
    <glyph glyph-name="kehu" unicode="&#58911;" d="M976.350968 409.930323c0-97.032258 0.082581-194.147097 0-291.179355-0.082581-59.458065-21.80129-81.424516-80.433549-81.424516-48.970323 0-98.023226 1.816774-146.828387-0.660646-29.233548-1.486452-24.36129 15.194839-25.765161 33.114839-1.734194 21.553548 5.945806 27.086452 26.756129 26.425807 48.061935-1.486452 96.206452 0.247742 144.350968-0.825807 19.076129-0.412903 24.774194 6.193548 24.774193 24.774194-0.495484 194.147097-0.495484 388.294194 0 582.44129 0.082581 17.754839-5.863226 22.874839-23.370322 22.792258-130.807742-0.660645-261.698065 0.578065-392.505807-1.156129-27.334194-0.330323-26.83871 11.809032-27.581935 31.545807-0.743226 20.810323 2.972903 29.316129 27.003871 29.068387 132.541935-1.32129 265.00129-0.660645 397.543226-0.660646 51.778065 0 75.726452-23.122581 75.974193-75.313548 0.412903-99.757419 0.082581-199.349677 0.082581-298.941935zM713.496774 446.100645c-42.116129 0-84.149677 0.660645-126.265806-0.330322-17.094194-0.412903-23.618065 4.211613-23.535484 22.544516 0.247742 47.070968-0.578065 47.070968 46.245161 47.070967 77.460645 0 154.92129-0.495484 232.299355 0.412904 18.745806 0.247742 27.251613-3.468387 26.508387-24.609033-1.816774-51.282581 4.872258-44.676129-44.180645-45.006451-36.996129-0.247742-74.074839-0.082581-111.070968-0.082581zM718.781935 653.956129c43.024516 0 85.966452-0.578065 128.908388 0.330323 15.029677 0.330323 20.562581-3.550968 20.892903-19.489033 0.990968-47.566452 1.651613-47.566452-45.501936-47.566451-78.369032 0-156.738065 0.578065-235.107096-0.412903-18.332903-0.247742-24.856774 3.550968-24.443871 23.205161 0.990968 43.932903-0.082581 43.932903 43.932903 43.932903h111.318709zM754.209032 298.363871c-31.132903 0-62.348387 0.660645-93.48129-0.330323-14.534194-0.495484-20.810323 2.477419-21.058065 18.910968-0.825806 48.061935-1.651613 48.061935 47.31871 48.061936 53.016774 0 106.116129-0.743226 159.132903 0.412903 18.167742 0.412903 22.627097-5.698065 22.544516-22.95742-0.330323-44.180645 0.495484-44.180645-43.685161-44.180645-23.618065 0.082581-47.153548 0.082581-70.771613 0.082581zM635.292903 62.265806c-8.340645 122.797419-63.587097 216.27871-172.593548 275.984517-10.735484 5.863226-22.214194 10.24-34.60129 15.938064 90.756129 62.596129 126.183226 137.496774 113.300645 236.015484-12.056774 92.325161-87.865806 171.767742-176.144516 184.650323-96.949677 14.203871-184.32-35.096774-225.114839-125.770323-41.290323-91.747097-22.461935-222.389677 96.371613-294.730323-9.744516-4.376774-16.516129-7.184516-23.122581-10.487742-116.356129-57.64129-175.979355-152.36129-183.741935-280.939354-0.330323-5.450323-3.963871-14.286452 2.312258-16.268387 17.837419-5.532903 36.830968-3.79871 54.916129-1.651613 14.864516 1.816774 6.689032 16.350968 8.340645 25.269677 2.147097 11.56129 2.972903 23.370323 4.954839 35.014194 19.984516 118.007742 119.824516 198.028387 241.052903 193.403871 120.567742-4.624516 214.792258-93.233548 225.36258-211.901936 3.963871-44.263226 3.963871-43.685161 49.796129-43.024516 14.203871 0.165161 19.901935 3.88129 18.910968 18.498064zM330.652903 399.442581c-80.020645 0.165161-144.68129 69.037419-144.929032 154.178064-0.165161 87.452903 63.256774 155.581935 145.176774 155.994839 81.754839 0.412903 147.736774-67.79871 148.727742-153.765161 0.990968-85.883871-66.312258-156.655484-148.975484-156.407742z"  horiz-adv-x="1024" />

    
    </font>
</defs>
</svg>
